Поделись в соц. сетях


Baranov ®

Gender:
Unknown
Longevity:
1 year 9 months
Posts:
273

--Наркокурьер / The Mule-- --Год выпуска: 2018
Выпущено: США , Warner Bros., Imperative Entertainment, Bron Creative
Жанр:Триллер, драма, криминал, детектив
Продолжительность:01:56:27--Озвучка #1: Профессиональный многоголосый - HDRezka Studio - Русский
Озвучка #2: Авторский - Михаил Яроцкий - Русский
Озвучка #3: Профессиональный многоголосый -Английский - Оригинал
Субтитры: English, English SDH
--Релиз Без Рекламы - ВНИМАНИЕ! В сериале пНенормативная лексика --MDB --Режиссеры:
Клинт Иствуд--В ролях: Клинт Иствуд, Брэдли Купер, Таисса Фармига, Элисон Иствуд, Майкл Пенья, Энди Гарсиа, Лоуренс Фишборн, Дайэнн Уист, Игнасио Серричио, Джилл Флинт-- Эрл Стоун — одинокий старик. Его частный бизнес находится на грани разорения, отношения с женой не ладятся, а дети, кажется, давно забыли о его существовании. Неожиданно ему предлагают непыльную, но прибыльную работенку — просто водить машину. Стоун поначалу соглашается и вскоре понимает, что стал наркокурьером мексиканского картеля.-- --Качество :BDRip 1080p
Формат: MKV
Видео кодек: H264
Видео: 11,5Мбит/сек,1920х804(2.40.1),в 23.976кадр/сек,AVC (High@L4.1)(CABAC/4 Ref Frames)--Аудио Кодек:AC3
Аудио #1:AC3 640 Kbps, 48.0 KHz, 6 ch- HDRezka -Русский
Аудио #2:AC3 640 Kbps, 48.0 KHz, 6 ch- Яроцкий -Русский
Аудио #3: AC3, 640 Kbps, 48.0 KHz,6 ch - - English - Оригинал--

Доп. информация:

Звуковая дорожка сделана путем наложения чистого голоса озвучивателей на центральный канал оригинальной дорожки. Качество идентично звуковой дорожке.
--

MediaInfo сезона

Общее
Уникальный идентификатор : 4119780900666679249579702057320497375 (0x31970E17325BA513DE1CC77E6CAC0DF)
Полное имя : C:\Users\Russian Patriot\Downloads\Наркокурьер НАРКОКУРЬЕР - The Mule\THE_MULE_2018_Н264_DD5.1_N.B_BDRip_1080_2xRus_Eng\The_Mule_2018_Н264_DD5.1_N.B_BDRip_1080_2xRus_Eng.mkv
Формат : Matroska
Версия формата : Version 4
Размер файла : 10,9 Гбайт
Продолжительность : 1 ч. 56 м.
Общий поток : 13,4 Мбит/сек
Название фильма : The Mule 2018 @ Nikolai.Baranov & PIRATIYA
Дата кодирования : UTC 2019-04-02 06:51:29
Программа кодирования : mkvmerge v32.0.0 ('Astral Progressions') 64-bit
Библиотека кодирования : libebml v1.3.7 + libmatroska v1.5.0
Видео
Идентификатор : 1
Формат : AVC
Формат/Информация : Advanced Video Codec
Профиль формата : High@L4.1
Настройки формата : CABAC / 4 Ref Frames
Параметр CABAC формата : Да
Параметр RefFrames формата : 4 кадра
Идентификатор кодека : V_MPEG4/ISO/AVC
Продолжительность : 1 ч. 56 м.
Битрейт : 11,5 Мбит/сек
Ширина : 1920 пикселей
Высота : 804 пикселя
Соотношение сторон : 2,40:1
Режим частоты кадров : Постоянный
Частота кадров : 23,976 (24000/1001) кадра/сек
Цветовое пространство : YUV
Субдискретизация насыщенности : 4:2:0
Битовая глубина : 8 бит
Тип развёртки : Прогрессивная
Бит/(Пиксели*Кадры) : 0.310
Размер потока : 9,33 Гбайт (86%)
Заголовок : The_Mule_2018_Н264_DD5.1_N.B_BDRip_1080_2xRus_Eng
Библиотека кодирования : x264 core 155 r2867+74 66b5600 t_mod_Custom_2 [8-bit@all X86_64]
Настройки программы : cabac=1 / ref=4 / deblock=1:-3:-3 / analyse=0x3:0x133 / me=umh / subme=10 / psy=1 / fade_compensate=0.00 / psy_rd=0.95:0.10 / mixed_ref=1 / me_range=48 / chroma_me=1 / trellis=2 / 8x8dct=1 / cqm=0 / deadzone=21,11 / fast_pskip=0 / chroma_qp_offset=-4 / threads=18 / lookahead_threads=3 / sliced_threads=0 / nr=0 / decimate=1 / interlaced=0 / bluray_compat=0 / constrained_intra=0 / fgo=0 / bframes=8 / b_pyramid=2 / b_adapt=2 / b_bias=0 / direct=3 / weightb=1 / open_gop=0 / weightp=2 / keyint=250 / keyint_min=23 / scenecut=40 / intra_refresh=0 / rc_lookahead=60 / rc=crf / mbtree=0 / crf=20.0000 / qcomp=0.70 / qpmin=0:0:0 / qpmax=69:69:69 / qpstep=4 / vbv_maxrate=35000 / vbv_bufsize=35000 / crf_max=0.0 / nal_hrd=none / filler=0 / ip_ratio=1.40 / pb_ratio=1.30 / aq=3:1.00 / aq-sensitivity=10.00 / aq-factor=1.00:1.00:1.00 / aq2=0 / aq3=2:[0.50:0.50]:[0.50:0.50]:[0.50:0.50]:[0.50:0.50] / aq3-sensitivity=10.00 / aq3-factor=[1.00:1.00]:[1.00:1.00]:[1.00:1.00] / aq3-boundary=192:64:24
Язык : Russian
Default : Да
Forced : Нет
Аудио #1
Идентификатор : 4
Формат : AC-3
Формат/Информация : Audio Coding 3
Коммерческое название : Dolby Digital
Идентификатор кодека : A_AC3
Продолжительность : 1 ч. 56 м.
Вид битрейта : Постоянный
Битрейт : 640 Кбит/сек
Каналы : 6 каналов
Channel layout : L R C LFE Ls Rs
Частота : 48,0 КГц
Частота кадров : 31,250 кадров/сек (1536 SPF)
Битовая глубина : 16 бит
Метод сжатия : С потерями
Размер потока : 533 Мбайт (5%)
Заголовок : MVO HDRezka @DD5.1 AC3, 640 Kbps, 48.0 KHz, 6 ch
Язык : Russian
ServiceKind/String : Complete Main
Default : Да
Forced : Нет
Аудио #2
Идентификатор : 5
Формат : AC-3
Формат/Информация : Audio Coding 3
Коммерческое название : Dolby Digital
Идентификатор кодека : A_AC3
Продолжительность : 1 ч. 56 м.
Вид битрейта : Постоянный
Битрейт : 640 Кбит/сек
Каналы : 6 каналов
Channel layout : L R C LFE Ls Rs
Частота : 48,0 КГц
Частота кадров : 31,250 кадров/сек (1536 SPF)
Битовая глубина : 16 бит
Метод сжатия : С потерями
Размер потока : 533 Мбайт (5%)
Заголовок : AVO Михаил Яроцкий @DD5.1 AC3, 640 Kbps, 48.0 KHz, 6 ch
Язык : Russian
ServiceKind/String : Complete Main
Default : Нет
Forced : Нет
Аудио #3
Идентификатор : 6
Формат : AC-3
Формат/Информация : Audio Coding 3
Коммерческое название : Dolby Digital
Идентификатор кодека : A_AC3
Продолжительность : 1 ч. 56 м.
Вид битрейта : Постоянный
Битрейт : 640 Кбит/сек
Каналы : 6 каналов
Channel layout : L R C LFE Ls Rs
Частота : 48,0 КГц
Частота кадров : 31,250 кадров/сек (1536 SPF)
Битовая глубина : 16 бит
Метод сжатия : С потерями
Размер потока : 533 Мбайт (5%)
Заголовок : Original@DD5.1 AC3 ,640 Kbps, 48.0 KHz, 6 ch
Язык : English
ServiceKind/String : Complete Main
Default : Нет
Forced : Нет
Текст #1
Идентификатор : 2
Формат : UTF-8
Идентификатор кодека : S_TEXT/UTF8
Идентификатор кодека/Информация : UTF-8 Plain Text
Продолжительность : 1 ч. 49 м.
Битрейт : 66 бит/сек
ElementCount : 1831
Размер потока : 53,7 Кбайт (0%)
Заголовок : Original - SDH
Язык : English
Default : Да
Forced : Нет
Текст #2
Идентификатор : 3
Формат : UTF-8
Идентификатор кодека : S_TEXT/UTF8
Идентификатор кодека/Информация : UTF-8 Plain Text
Продолжительность : 1 ч. 49 м.
Битрейт : 56 бит/сек
ElementCount : 1593
Размер потока : 45,2 Кбайт (0%)
Заголовок : Original
Язык : English
Default : Нет
Forced : Нет
Меню
00:00:00.000 : :绗?01 绔? / :Глава 01 / :Глава 01 / :Глава 01 / :Глава 01 / :Глава 01
00:06:45.822 : :绗?02 绔?
00:15:27.885 : :绗?03 绔?
00:23:24.236 : :绗?04 绔?
00:32:22.482 : :绗?05 绔?
00:40:29.886 : :绗?06 绔?
00:48:20.564 : :绗?07 绔?
00:57:55.347 : :绗?08 绔?
01:07:17.408 : :绗?09 绔?
01:16:17.364 : :绗?10 绔?
01:23:18.785 : :绗?11 绔?
01:32:20.160 : :绗?12 绔?
01:39:12.947 : :绗?13 绔?
01:46:17.580 : :绗?14 绔?
01:48:52.443 : :绗?15 绔?
--

Скриншоты

-- -- -- --Релиз от: Nikolai.Baranov & PIRATIYA . Поблагодарить:
ЯД: 410017546713876
-- -- -- --Время раздачи : 24/7--
Profile PM
Display posts:    

Current time is: 25-Apr 23:06

All times are UTC + 3



You cannot post new topics in this forum
You cannot reply to topics in this forum
You cannot edit your posts in this forum
You cannot delete your posts in this forum
You cannot vote in polls in this forum
You cannot attach files in this forum
You cannot download files in this forum
    Яндекс.Метрика