Поделись в соц. сетях


Baranov ®

Gender:
Unknown
Longevity:
1 year 9 months
Posts:
273

-- Проверка на прочность / Test of strength Серия 1-4 из 4 - Полный Комплект-- --Год выпуска: 2018
Выпущено: Украина , , PRO-TV
Жанр:Боевик, детектив
Продолжительность: 00:48:00
Серия: 1-4
Количество серий в сезоне: 4
Озвучка : -Русский --Релиз Без Рекламы --Режиссеры:
Сергей Терещук--В ролях: Вахтанг Беридзе, Дмитрий Сарансков, Алексей Агеев (II), Юлия Вайшнур, Илья Денискин, Евгений Бондарский, Борис Георгиевский, Дарья Калиниченко, Виктория Литвиненко, Сергей Малюта, Александр Соколенко, Дмитрий Суржиков, Павел Текучев
-- Команда Вадима Суворова занимается проверкой служб безопасности. Делают они это весьма оригинальным методом, например, сами грабят банк. Потом награбленное, конечно, возвращают и показывают ограбленным и удивлённым «клиентам», где слабые места в охране. Всем членам команды поступает предложение от таинственного «незнакомца». Вадим подозревает что-то неладное, но его коллеги Толстяк и Красавчик, обольстившись тройным гонораром и лёгкостью дела, убеждают командира согласиться. Они ловко грабят инкассаторскую машину. Их поблагодарили, заплатили, забрали «награбленное». Но, как оказалось, что это была «подстава». Теперь им предстоит предпринять меры, чтобы найти и поймать настоящих бандитов. Искать преступников им надо, постоянно спасаясь от идущей по их следам полиции.-- --Качество :WEB-DLRip 1080p
Формат: MKV
Видео кодек: H264
Видео: 6020Кбит/сек,1920х1080(16.9),в 25.026кадр/сек,AVC (High@L4)(CABAC/2 Ref Frames)--Аудио Кодек:AC3
Аудио #1:AC3 , 384 Kbps, 48.0 KHz, 6 ch-Русский--

MediaInfo

Общее
Уникальный идентификатор : 233676792779209665119888783515328957181 (0xAFCC83647EC590A74422AC6C7783CAFD)
Полное имя : C:\Users\Russian Patriot\Downloads\ПРОВЕРКА НА ПРОЧНОСТЬ - Test of strength\TEST_OF_STRENGTH_2018_Е01-Е04_Н264_DD5.1_N.B_HD_1080_Rus\Test_of_strength_2018_Е01-Е04_Н264_DD5.1_N.B_HD_1080_Rus.mkv
Формат : Matroska
Версия формата : Version 4
Размер файла : 8,33 Гбайт
Продолжительность : 3 ч. 6 м.
Режим общего битрейта : Переменный
Общий поток : 6406 Кбит/сек
Название фильма : Test of strength 2018 Е01-Е04 @ Nikolai.Baranov & PIRATIYA
Дата кодирования : UTC 2019-03-30 16:14:50
Программа кодирования : mkvmerge v32.0.0 ('Astral Progressions') 64-bit
Библиотека кодирования : libebml v1.3.7 + libmatroska v1.5.0
Видео
Идентификатор : 1
Формат : AVC
Формат/Информация : Advanced Video Codec
Профиль формата : High@L4
Настройки формата : CABAC / 2 Ref Frames
Параметр CABAC формата : Да
Параметр RefFrames формата : 2 кадра
Параметр GOP формата : M=2, N=15
Идентификатор кодека : V_MPEG4/ISO/AVC
Продолжительность : 3 ч. 6 м.
Вид битрейта : Переменный
Битрейт : 6020 Кбит/сек
Максимальный битрейт : 16,0 Мбит/сек
Ширина : 1920 пикселей
Высота : 1080 пикселей
Соотношение сторон : 16:9
Режим частоты кадров : Переменный
Частота кадров : 25,026 кадров/сек
Частота кадров в оригинале : 29,970 (30000/1001) кадров/сек
Цветовое пространство : YUV
Субдискретизация насыщенности : 4:2:0
Битовая глубина : 8 бит
Тип развёртки : Прогрессивная
Бит/(Пиксели*Кадры) : 0.116
Размер потока : 7,83 Гбайт (94%)
Заголовок : Test_of_strength_2018_Е01-Е04_Н264_DD5.1_N.B_HD_1080_Rus
Язык : Russian
Default : Нет
Forced : Нет
Аудио
Идентификатор : 2
Формат : AC-3
Формат/Информация : Audio Coding 3
Коммерческое название : Dolby Digital
Идентификатор кодека : A_AC3
Продолжительность : 3 ч. 6 м.
Вид битрейта : Постоянный
Битрейт : 384 Кбит/сек
Каналы : 6 каналов
Channel layout : L R C LFE Ls Rs
Частота : 48,0 КГц
Частота кадров : 31,250 кадров/сек (1536 SPF)
Битовая глубина : 16 бит
Метод сжатия : С потерями
Размер потока : 511 Мбайт (6%)
Заголовок : Russian @DD5.1 AC3, 384 Kbps, 48.0 KHz, 6 ch
Язык : Russian
ServiceKind/String : Complete Main
Default : Да
Forced : Нет
Меню
00:00:00.000 : :Глава 01 / :Глава 01
--

Скриншоты

-- -- -- --Релиз от: Nikolai.Baranov & PIRATIYA . Поблагодарить:
ЯД: 410017546713876
-- -- -- --Время раздачи : 24/7--
Profile PM
Display posts:    

Current time is: 25-Apr 22:56

All times are UTC + 3



You cannot post new topics in this forum
You cannot reply to topics in this forum
You cannot edit your posts in this forum
You cannot delete your posts in this forum
You cannot vote in polls in this forum
You cannot attach files in this forum
You cannot download files in this forum
    Яндекс.Метрика