Поделись в соц. сетях


Baranov ®

Gender:
Unknown
Longevity:
1 year 11 months
Posts:
279

-- --Американские боги / American Gods Сезон 2 , Серия 1-8 из 8 Полный Комплект-- --Год выпуска: 2019
Выпущено: США , Fremantle Media North America
Жанр: Фэнтези, детектив
Продолжительность: 00:55:00
Сезон:2
Серия:1-8
Количество серий в сезоне:8--Озвучка #1: Дублированный - Нота - Русский
Озвучка #2: Профессиональный многоголосый - LostFilm - Русский
Озвучка #3: Профессиональный многоголосый - Jaskier - Русский
Озвучка #4: Профессиональный многоголосый - AlexFilm - Русский
Озвучка #5: Профессиональный многоголосый - NewStudio -Е01-Е04- Русский
Озвучка #6: Профессиональный многоголосый -Английский - Оригинал
Субтитры: Russian , English, English SDH
--Релиз Без Рекламы - ВНИМАНИЕ! В сериале Ненормативная лексика --*
MDB --Режиссеры:
Дэвид Слэйд, Адам Кэйн, Винченцо Натали--В ролях: Рики Уиттл, Иэн МакШейн, Эмили Браунинг, Пабло Шрайбер, Брюс Лэнгли, Джонатан Такер, Джиллиан Андерсон, Клорис Личмен, Демор Барнс, Криспин Гловер, Йетиде Бадаки, Орландо Джонс, Петер Стормаре, Джереми Дэвис, Омид Абтахи, Кристофер Оби-- Тень — человек с прошлым. Но теперь единственное, чего он хочет — это жить тихой и спокойной жизнью со своей женой в стороне от проблем. Пока он не узнает о ее гибели в результате несчастного случая. По пути на похороны домой, когда сильнейший шторм сотрясает самолет, ему представляется странный человек с соседнего кресла. Он называет себя мистер Среда. И он знает о Тени больше, чем кажется возможным. Он предупреждает Тень, что грядет ещё больший шторм. И ничто с этого момента, включая его самого, не будет таким, как прежде.-- --Качество :WEB-DLRip 1080p
Формат: MKV
Видео кодек: H264
Видео: 9031Кбит/сек,1920х1080(16.9),в 23.976кадр/сек,AVC (High@L4)(CABAC/4 Ref Frames)--Аудио Кодек:AC3
Аудио #1:AC3 640 Kbps, 48.0 KHz, 6 ch- Lostfilm -Русский
Аудио #2:AC3 640 Kbps, 48.0 KHz, 6 ch- Нота -Русский
Аудио #3:AC3 384 Kbps, 48.0 KHz, 6 ch- Jaskier -Русский
Аудио #4:AC3 384 Kbps, 48.0 KHz, 6 ch- AlexFilm -Русский
Аудио #5:AC3 384 Kbps, 48.0 KHz, 6 ch- NewStudio -Русский
Аудио #6: AC3, 640 Kbps, 48.0 KHz,6 ch - - English - Оригинал--

Доп. информация:

Звуковая дорожка сделана путем наложения чистого голоса озвучивателей на центральный канал оригинальной дорожки. Качество идентично звуковой дорожке.
--

Список эпизодов сезона


2 сезон 1 серия - Дом на скале - House on the Rock
2 сезон 2 серия - Обманщик - The Beguiling Man
2 сезон 3 серия - Мунин - Muninn
2 сезон 4 серия - Громче истории на свете нет - The Greatest Story Ever Told
2 сезон 5 серия - Мертвые порядки - The Ways of the Dead
2 сезон 6 серия - Великий Доннар - Donar the Great
2 сезон 7 серия - Сокровище солнца - Treasure of the Sun
2 сезон 8 серия - Лунная тень - Moon Shadow
--

MediaInfo сезона

Общее
Уникальный идентификатор : 43004357345946346021348414257393115087 (0x205A56843ADD31A83ED0AECC480D1FCF)
Полное имя : C:\Users\Russian Patriot\Downloads\АМЕРИКАНСКИЕ БОГИ - American Gods\American_Gods_2019_S02_Н264_DD5.1_N.B_HD_1080_2xRus_Eng\American_Gods_S02E01_Н264_DD5.1_N.B_HD_1080_2xRus_Eng.mkv
Формат : Matroska
Версия формата : Version 4
Размер файла : 4,56 Гбайт
Продолжительность : 53 м. 53 с.
Общий поток : 12,1 Мбит/сек
Название фильма : American Gods 2019 S02E01 @ Nikolai.Baranov & PIRATIYA
Дата кодирования : UTC 2019-03-28 09:20:05
Программа кодирования : mkvmerge v32.0.0 ('Astral Progressions') 64-bit
Библиотека кодирования : libebml v1.3.7 + libmatroska v1.5.0
Обложка : Yes
Attachments : cover.american.gods.jpg
Видео
Идентификатор : 1
Формат : AVC
Формат/Информация : Advanced Video Codec
Профиль формата : High@L4
Настройки формата : CABAC / 4 Ref Frames
Параметр CABAC формата : Да
Параметр RefFrames формата : 4 кадра
Идентификатор кодека : V_MPEG4/ISO/AVC
Продолжительность : 53 м. 53 с.
Вид битрейта : Постоянный
Битрейт : 9031 Кбит/сек
Номинальный битрейт : 10000 Кбит/сек
Ширина : 1920 пикселей
Высота : 1080 пикселей
Соотношение сторон : 16:9
Режим частоты кадров : Постоянный
Частота кадров : 23,976 (24000/1001) кадра/сек
Цветовое пространство : YUV
Субдискретизация насыщенности : 4:2:0
Битовая глубина : 8 бит
Тип развёртки : Прогрессивная
Бит/(Пиксели*Кадры) : 0.182
Размер потока : 3,40 Гбайт (75%)
Заголовок : American_Gods_S02E01_Н264_DD5.1_N.B_HD_1080_2xRus_Eng
Язык : Russian
Default : Да
Forced : Нет
Цветовой диапазон : Limited
Основные цвета : BT.709
Характеристики трансфера : BT.709
Коэффициенты матрицы : BT.709
Аудио #1
Идентификатор : 6
Формат : AC-3
Формат/Информация : Audio Coding 3
Коммерческое название : Dolby Digital
Идентификатор кодека : A_AC3
Продолжительность : 53 м. 53 с.
Вид битрейта : Постоянный
Битрейт : 640 Кбит/сек
Каналы : 6 каналов
Channel layout : L R C LFE Ls Rs
Частота : 48,0 КГц
Частота кадров : 31,250 кадров/сек (1536 SPF)
Битовая глубина : 16 бит
Метод сжатия : С потерями
Размер потока : 247 Мбайт (5%)
Заголовок : DUB Нота @DD5.1 AC3, 640 Kbps, 48.0 KHz, 6 ch
Язык : Russian
ServiceKind/String : Complete Main
Default : Да
Forced : Нет
Аудио #2
Идентификатор : 7
Формат : AC-3
Формат/Информация : Audio Coding 3
Коммерческое название : Dolby Digital
Идентификатор кодека : A_AC3
Продолжительность : 53 м. 53 с.
Вид битрейта : Постоянный
Битрейт : 640 Кбит/сек
Каналы : 6 каналов
Channel layout : L R C LFE Ls Rs
Частота : 48,0 КГц
Частота кадров : 31,250 кадров/сек (1536 SPF)
Битовая глубина : 16 бит
Метод сжатия : С потерями
Размер потока : 247 Мбайт (5%)
Заголовок : MVO LostFilm @DD5.1 AC3, 640 Kbps, 48.0 KHz, 6 ch
Язык : Russian
ServiceKind/String : Complete Main
Default : Нет
Forced : Нет
Аудио #3
Идентификатор : 8
Формат : AC-3
Формат/Информация : Audio Coding 3
Коммерческое название : Dolby Digital
Идентификатор кодека : A_AC3
Продолжительность : 53 м. 53 с.
Вид битрейта : Постоянный
Битрейт : 640 Кбит/сек
Каналы : 6 каналов
Channel layout : L R C LFE Ls Rs
Частота : 48,0 КГц
Частота кадров : 31,250 кадров/сек (1536 SPF)
Битовая глубина : 16 бит
Метод сжатия : С потерями
Размер потока : 247 Мбайт (5%)
Заголовок : Original@DD5.1 AC3 ,640 Kbps, 48.0 KHz, 6 ch
Язык : English
ServiceKind/String : Complete Main
Default : Нет
Forced : Нет
Аудио #4
Идентификатор : 9
Формат : AC-3
Формат/Информация : Audio Coding 3
Коммерческое название : Dolby Digital
Идентификатор кодека : A_AC3
Продолжительность : 53 м. 53 с.
Вид битрейта : Постоянный
Битрейт : 384 Кбит/сек
Каналы : 6 каналов
Channel layout : L R C LFE Ls Rs
Частота : 48,0 КГц
Частота кадров : 31,250 кадров/сек (1536 SPF)
Битовая глубина : 16 бит
Метод сжатия : С потерями
Размер потока : 148 Мбайт (3%)
Заголовок : MVO AlexFilm @DD5.1 AC3, 384 Kbps, 48.0 KHz, 6 ch
Язык : Russian
ServiceKind/String : Complete Main
Default : Нет
Forced : Нет
Аудио #5
Идентификатор : 10
Формат : AC-3
Формат/Информация : Audio Coding 3
Коммерческое название : Dolby Digital
Идентификатор кодека : A_AC3
Продолжительность : 53 м. 53 с.
Вид битрейта : Постоянный
Битрейт : 384 Кбит/сек
Каналы : 6 каналов
Channel layout : L R C LFE Ls Rs
Частота : 48,0 КГц
Частота кадров : 31,250 кадров/сек (1536 SPF)
Битовая глубина : 16 бит
Метод сжатия : С потерями
Размер потока : 148 Мбайт (3%)
Заголовок : MVO Jaskier @DD5.1 AC3, 384 Kbps, 48.0 KHz, 6 ch
Язык : Russian
ServiceKind/String : Complete Main
Default : Нет
Forced : Нет
Аудио #6
Идентификатор : 11
Формат : AC-3
Формат/Информация : Audio Coding 3
Коммерческое название : Dolby Digital
Идентификатор кодека : A_AC3
Продолжительность : 53 м. 53 с.
Вид битрейта : Постоянный
Битрейт : 384 Кбит/сек
Каналы : 6 каналов
Channel layout : L R C LFE Ls Rs
Частота : 48,0 КГц
Частота кадров : 31,250 кадров/сек (1536 SPF)
Битовая глубина : 16 бит
Метод сжатия : С потерями
Размер потока : 148 Мбайт (3%)
Заголовок : MVO NewStudio @DD5.1 AC3, 384 Kbps, 48.0 KHz, 6 ch
Язык : Russian
ServiceKind/String : Complete Main
Default : Нет
Forced : Нет
Текст #1
Идентификатор : 2
Формат : UTF-8
Идентификатор кодека : S_TEXT/UTF8
Идентификатор кодека/Информация : UTF-8 Plain Text
Продолжительность : 48 м. 18 с.
Битрейт : 2 бит/сек
ElementCount : 28
Размер потока : 1012 байт (0%)
Заголовок : Rus - Forced
Язык : Russian
Default : Да
Forced : Нет
Текст #2
Идентификатор : 3
Формат : UTF-8
Идентификатор кодека : S_TEXT/UTF8
Идентификатор кодека/Информация : UTF-8 Plain Text
Продолжительность : 53 м. 44 с.
Битрейт : 72 бит/сек
ElementCount : 546
Размер потока : 28,6 Кбайт (0%)
Заголовок : Rus
Язык : Russian
Default : Нет
Forced : Нет
Текст #3
Идентификатор : 4
Формат : UTF-8
Идентификатор кодека : S_TEXT/UTF8
Идентификатор кодека/Информация : UTF-8 Plain Text
Продолжительность : 53 м. 34 с.
Битрейт : 54 бит/сек
ElementCount : 713
Размер потока : 21,3 Кбайт (0%)
Заголовок : Original - SDH
Язык : English
Default : Нет
Forced : Нет
Текст #4
Идентификатор : 5
Формат : UTF-8
Идентификатор кодека : S_TEXT/UTF8
Идентификатор кодека/Информация : UTF-8 Plain Text
Продолжительность : 53 м. 34 с.
Битрейт : 51 бит/сек
ElementCount : 652
Размер потока : 20,1 Кбайт (0%)
Заголовок : Original
Язык : English
Default : Нет
Forced : Нет
Меню
00:00:00.000 : en:Amazon Original / :Глава 01 / :Глава 01 / :Глава 01 / :Глава 01 / :Глава 01 / :Глава 01 / :Глава 01 / :Глава 01 / :Глава 01 / :Глава 01
00:00:06.000 : en:Previously On
00:02:22.000 : en:Opening Credits
00:03:53.000 : en:Now is a time for preparation
00:07:26.000 : en:Shadow doesn't know what to believe anymore
00:10:50.000 : en:What is the House On The Rock?
00:13:22.000 : en:Mr. World has a request
00:14:29.000 : en:Arrival at Castle Rock
00:18:25.000 : en:Salim is following his heart
00:19:23.000 : en:A fortune reveals everything and nothing
00:23:08.000 : en:Mr. Wednesday greets his new guests
00:25:28.000 : en:Shadow carries heavy burdens
00:26:54.000 : en:Laura wants a fortune
00:27:51.000 : en:People are called to places of power
00:29:03.000 : en:A powerful carnival ride
00:31:40.000 : en:A meeting of the old gods
00:40:01.000 : en:A celebratory meal
00:44:22.000 : en:Mr. World has someone on the inside
00:44:42.000 : en:Laura tries to warn Shadow
00:46:54.000 : en:The celebration turns deadly
00:52:14.000 : en:End Credits
--

Скриншоты

-- --

Как закачать отдельный файл

1. Открыть торрент
2. Снять галки с тех файлов торрента, которые мы не хотим закачивать. Оставляем только на нужных нам файлах (файле).
3. Нажать О.К.
В клиенте utorrent
Инструкция
1) Открыть торрент

2) Снять галки с тех файлов торрента, которые мы не хотим закачивать:
* либо вручную, снимая с каждого файла галку( скрин №1)
* либо, нажав кнопку "Снять метки (Select None)", сняв сразу со всех файлов(скрин №2)
№1

№2

Оставляем только на нужных нам файлах (файле).

3)Нажать О.К
-- -- --Внимание!!! 10.05. 2019. РАЗДАЧА ОБНОВЛЕНА. ДОБАВЛЕНЫ -8- СЕРИЯ. Финал Сезона ОБНОВИТЕ ТОРЕНТ ФАЙЛ. ПРИЯТНОГО ПРОСМОТРА . Поблагодарить:
ЯД: 410017546713876
--Релиз от: Nikolai.Baranov & PIRATIYA -- -- -- --Время раздачи : 24/7--
Profile PM
Display posts:    

Current time is: 19-Jun 22:41

All times are UTC + 3



You cannot post new topics in this forum
You cannot reply to topics in this forum
You cannot edit your posts in this forum
You cannot delete your posts in this forum
You cannot vote in polls in this forum
You cannot attach files in this forum
You cannot download files in this forum
    Яндекс.Метрика