Поделись в соц. сетях


Baranov ®

Пол:
Не указан
Стаж:
1 год 8 месяцев
Сообщений:
263

-- Всем всего хорошего / All The Best Серия 1-2 из 2 - Полный Комплект-- --Год выпуска: 2014
Выпущено: Россия , , «Всемирные Русские Студии»
Жанр:Комедия
Продолжительность: 00:52:00
Серия: 1-2
Количество серий в сезоне: 2
Озвучка : -Русский --Релиз Без Рекламы --Кинопоиск--Режиссеры:
Владимир Краснопольский, Валерий Усков--В ролях: Сергей Шнырёв, Таисия Вилкова, Юлия Маврина (I), Александр Вдовин, Ольга Родина, Людмила Гамуряк, Дмитрий Янышевский, Сергей Сосновский, Максим Сапрыкин (II), Юрий Тузов, Евгений Ермаков, Алексей Шемес
-- Вор Костя по кличке Одесса выходит из тюрьмы с твердым намерением «завязать». Но у ворот его поджидает бывший кореш, авторитет Утюг. Одесса должен взломать очередной сейф или найти 3 миллиона, чтобы откупиться от бывших дружков. Костя вспоминает, что незадолго до освобождения кореш по кличке Корень рассказывал, что его дочь Рита, которую Корень бросил еще в младенчестве, выиграла на телевизионном конкурсе талантов как раз три миллиона. Костя понимает, что это его шанс, сбегает от Утюга и направляется к Рите.-- --Качество :WEB-DLRip 1080p
Формат: MKV
Видео кодек: H264
Видео: 6068Кбит/сек,1920х1080(16.9),в 25.047кадр/сек,AVC (High@L4)(CABAC/2 Ref Frames)--Аудио Кодек:AC3
Аудио #1:AC3 , 384 Kbps, 48.0 KHz, 6 ch-Русский--

MediaInfo

Общее
Уникальный идентификатор : 324989805251742824121463632902412139324 (0xF47EC27F55F9CCB7BE02B36F25B97B3C)
Полное имя : C:\Nikolai.Baranov & PIRATIYA\ВСЕМ ВСЕГО ХОРОШЕГО - All The Best\ALL_THE_BEST_2014_Е01-Е02_Н264_DD5.1_N.B_HD_1080_Rus\All_The_Best_2014_Е01-Е02_Н264_DD5.1_N.B_HD_1080_Rus.mkv
Формат : Matroska
Версия формата : Version 4
Размер файла : 4,69 Гбайт
Продолжительность : 1 ч. 44 м.
Режим общего битрейта : Переменный
Общий поток : 6454 Кбит/сек
Название фильма : All The Best 2014 Е01-Е02 @ Nikolai.Baranov & PIRATIYA
Дата кодирования : UTC 2019-03-09 16:58:31
Программа кодирования : mkvmerge v31.0.0 ('Dolores In A Shoestand') 64-bit
Библиотека кодирования : libebml v1.3.6 + libmatroska v1.4.9
Видео
Идентификатор : 1
Формат : AVC
Формат/Информация : Advanced Video Codec
Профиль формата : High@L4
Настройки формата : CABAC / 2 Ref Frames
Параметр CABAC формата : Да
Параметр RefFrames формата : 2 кадра
Параметр GOP формата : M=2, N=15
Идентификатор кодека : V_MPEG4/ISO/AVC
Продолжительность : 1 ч. 44 м.
Вид битрейта : Переменный
Битрейт : 6068 Кбит/сек
Максимальный битрейт : 16,0 Мбит/сек
Ширина : 1920 пикселей
Высота : 1080 пикселей
Соотношение сторон : 16:9
Режим частоты кадров : Переменный
Частота кадров : 25,047 кадров/сек
Частота кадров в оригинале : 29,970 (30000/1001) кадров/сек
Цветовое пространство : YUV
Субдискретизация насыщенности : 4:2:0
Битовая глубина : 8 бит
Тип развёртки : Прогрессивная
Бит/(Пиксели*Кадры) : 0.117
Размер потока : 4,41 Гбайт (94%)
Заголовок : All_The_Best_2014_Е01-Е02_Н264_DD5.1_N.B_HD_1080_Rus
Язык : Russian
Default : Нет
Forced : Нет
Аудио
Идентификатор : 2
Формат : AC-3
Формат/Информация : Audio Coding 3
Коммерческое название : Dolby Digital
Идентификатор кодека : A_AC3
Продолжительность : 1 ч. 44 м.
Вид битрейта : Постоянный
Битрейт : 384 Кбит/сек
Каналы : 6 каналов
Channel layout : L R C LFE Ls Rs
Частота : 48,0 КГц
Частота кадров : 31,250 кадров/сек (1536 SPF)
Битовая глубина : 16 бит
Метод сжатия : С потерями
Размер потока : 286 Мбайт (6%)
Заголовок : Russian @DD5.1 AC3, 384 Kbps, 48.0 KHz, 6 ch
Язык : Russian
ServiceKind/String : Complete Main
Default : Да
Forced : Нет
Меню
00:00:00.000 : :Глава 01 / :Глава 01
--

Скриншоты

-- -- -- --Релиз от: Nikolai.Baranov & PIRATIYA . Поблагодарить:
ЯД: 410017546713876
-- -- -- --Время раздачи : 24/7--
Профиль ЛС
Показать сообщения:    

Текущее время: 19-Мар 07:23

Часовой пояс: UTC + 3



Вы не можете начинать темы
Вы не можете отвечать на сообщения
Вы не можете редактировать свои сообщения
Вы не можете удалять свои сообщения
Вы не можете голосовать в опросах
Вы не можете прикреплять файлы к сообщениям
Вы не можете скачивать файлы
    Яндекс.Метрика