Поделись в соц. сетях


Baranov ®

Пол:
Не указан
Стаж:
1 год 8 месяцев
Сообщений:
263

--Уэйн / Wayne Сезон 1 , Серия 1-10 из 10 - Полный Комплект-- --Год выпуска: 2019
Выпущено: США , Endeavor Content
Жанр: Боевик, комедия
Продолжительность:00:35:00
Сезон:1
Серия:1-10
Количество серий в сезоне:10--Озвучка #1: Профессиональный многоголосый - TVShows - Русский
Озвучка #2: Профессиональный многоголосый - HDRezka - Русский
Озвучка #3: Любительский одноголосый - Денис Шадинский - Русский
Озвучка #4: Профессиональный многоголосый -Английский - Оригинал
Субтитры: Russian , English, English SDH
--Релиз Без Рекламы - ВНИМАНИЕ! В сериале пНенормативная лексика --MDB [ --Режиссеры:
Стив Пинк, Тесса Хофф, Майкл Патрик Джэнн--В ролях: Сиэра Браво, Марк МакКенна, Джеймс Эрл, Стивен Кеарин, Дин Уинтерс, Майк О’Мэлли, Джошуа Дж. Уильямс-- Смерть отца заставила молодого шестнадцатилетнего паренька Уэйна задуматься о самостоятельном будущем. Жизнь была и так не сахар, а тут еще и потеря близкого человека. Ко всему прочему, нужно разобраться с делами, которые отец так и не довел до конца. Где-то во Флориде находится его старенький Понтиак, который почему-то был очень дорог своему владельцу. Юному Уэйну ничего не остается, кроме как отправиться в это долгое путешествие из Бостона во Флориду, чтобы забрать автомобиль. С собой в столь непростой путь он берет подругу. Пара отправиться в поездку на мотоцикле и повидает на пути многое. Правда, просто забрать Понтиак вряд ли получится. Так уж вышло, что еще до смерти отца эту машину угнали, поэтому теперь Уэйн движется прямиком к настоящим преступникам, чтобы забрать то, что принадлежит ему по праву!-- --Качество :WEB-DLRip 1080p
Формат: MKV
Видео кодек: H264
Видео: 2584Кбит/сек,1920х1080(16.9),в 23.976кадр/сек,AVC (High@L4)(CABAC/2 Ref Frames)--Аудио Кодек:AC3
Аудио #1:AC3 384 Kbps, 48.0 KHz, 6 ch- TVShows -Русский
Аудио #2:AC3 384 Kbps, 48.0 KHz, 6 ch- HDRezka -Русский
Аудио #3:AC3 384 Kbps, 48.0 KHz, 6 ch- Шадинский -Русский
Аудио #4: AC3, 384 Kbps, 48.0 KHz,6 ch - - English - Оригинал--

Доп. информация:

Звуковая дорожка сделана путем наложения чистого голоса озвучивателей на центральный канал оригинальной дорожки. Качество идентично звуковой дорожке.
--

Список эпизодов сезона


1. Chapter One: Get Some Then
2. Chapter Two: No Priests
3. Chapter Three: The Goddamned Beacon of Truth
4. Chapter Four: Find Something Black To Wear
5. Chapter Five: Del
6. Chapter Six: Who Even Are We Now?
7. Chapter Seven: It'll Last Forever
8. Chapter Eight: Musta Burned Like Hell
9. Chapter Nine: Thought We Was Friends
10. Chapter Ten: Buckle The Fuck Up
--

MediaInfo сезона

Общее
Уникальный идентификатор : 167589436980162343358684809965173935539 (0x7E148D2F62EBB73870594651590F0DB3)
Полное имя : C:\Nikolai.Baranov & PIRATIYA\Уэйн - Wayne\WAYNE_2019_S01_Н264_DD5.1_N.B_HD_1080_3xRus_Eng\Wayne_S01T01_Н264_DD5.1_N.B_HD_1080_3xRus_Eng.mkv
Формат : Matroska
Версия формата : Version 4
Размер файла : 1,01 Гбайт
Продолжительность : 35 м. 12 с.
Общий поток : 4108 Кбит/сек
Название фильма : WAYNE 2019 S01Е01 @ Nikolai.Baranov & PIRATIYA
Дата кодирования : UTC 2019-03-07 08:46:20
Программа кодирования : mkvmerge v31.0.0 ('Dolores In A Shoestand') 64-bit
Библиотека кодирования : libebml v1.3.6 + libmatroska v1.4.9
Видео
Идентификатор : 1
Формат : AVC
Формат/Информация : Advanced Video Codec
Профиль формата : High@L4
Настройки формата : CABAC / 2 Ref Frames
Параметр CABAC формата : Да
Параметр RefFrames формата : 2 кадра
Идентификатор кодека : V_MPEG4/ISO/AVC
Продолжительность : 35 м. 3 с.
Битрейт : 2584 Кбит/сек
Ширина : 1920 пикселей
Высота : 1080 пикселей
Соотношение сторон : 16:9
Режим частоты кадров : Постоянный
Частота кадров : 23,976 (24000/1001) кадра/сек
Цветовое пространство : YUV
Субдискретизация насыщенности : 4:2:0
Битовая глубина : 8 бит
Тип развёртки : Прогрессивная
Бит/(Пиксели*Кадры) : 0.052
Размер потока : 648 Мбайт (63%)
Заголовок : Wayne_S01T01_Н264_DD5.1_N.B_HD_1080_3xRus_Eng
Язык : Russian
Default : Нет
Forced : Нет
Цветовой диапазон : Limited
Основные цвета : BT.709
Характеристики трансфера : BT.709
Коэффициенты матрицы : BT.709
Аудио #1
Идентификатор : 5
Формат : AC-3
Формат/Информация : Audio Coding 3
Коммерческое название : Dolby Digital
Идентификатор кодека : A_AC3
Продолжительность : 35 м. 4 с.
Вид битрейта : Постоянный
Битрейт : 384 Кбит/сек
Каналы : 6 каналов
Channel layout : L R C LFE Ls Rs
Частота : 48,0 КГц
Частота кадров : 31,250 кадров/сек (1536 SPF)
Битовая глубина : 16 бит
Метод сжатия : С потерями
Размер потока : 96,3 Мбайт (9%)
Заголовок : MVO TVShows @DD5.1 AC3, 384 Kbps, 48.0 KHz, 6 ch
Язык : Russian
ServiceKind/String : Complete Main
Default : Да
Forced : Нет
Аудио #2
Идентификатор : 6
Формат : AC-3
Формат/Информация : Audio Coding 3
Коммерческое название : Dolby Digital
Идентификатор кодека : A_AC3
Продолжительность : 35 м. 4 с.
Вид битрейта : Постоянный
Битрейт : 384 Кбит/сек
Каналы : 6 каналов
Channel layout : L R C LFE Ls Rs
Частота : 48,0 КГц
Частота кадров : 31,250 кадров/сек (1536 SPF)
Битовая глубина : 16 бит
Метод сжатия : С потерями
Размер потока : 96,3 Мбайт (9%)
Заголовок : MVO HDRezka @DD5.1 AC3, 384 Kbps, 48.0 KHz, 6 ch
Язык : Russian
ServiceKind/String : Complete Main
Default : Нет
Forced : Нет
Аудио #3
Идентификатор : 7
Формат : AC-3
Формат/Информация : Audio Coding 3
Коммерческое название : Dolby Digital
Идентификатор кодека : A_AC3
Продолжительность : 35 м. 12 с.
Вид битрейта : Постоянный
Битрейт : 384 Кбит/сек
Каналы : 6 каналов
Channel layout : L R C LFE Ls Rs
Частота : 48,0 КГц
Частота кадров : 31,250 кадров/сек (1536 SPF)
Битовая глубина : 16 бит
Метод сжатия : С потерями
Размер потока : 96,7 Мбайт (9%)
Заголовок : VO Денис Шадинский @DD5.1 AC3, 384 Kbps, 48.0 KHz, 6 ch
Язык : Russian
ServiceKind/String : Complete Main
Default : Нет
Forced : Нет
Аудио #4
Идентификатор : 8
Формат : AC-3
Формат/Информация : Audio Coding 3
Коммерческое название : Dolby Digital
Идентификатор кодека : A_AC3
Продолжительность : 35 м. 4 с.
Вид битрейта : Постоянный
Битрейт : 384 Кбит/сек
Каналы : 6 каналов
Channel layout : L R C LFE Ls Rs
Частота : 48,0 КГц
Частота кадров : 31,250 кадров/сек (1536 SPF)
Битовая глубина : 16 бит
Метод сжатия : С потерями
Размер потока : 96,3 Мбайт (9%)
Заголовок : Original@DD5.1 AC3 ,384 Kbps, 48.0 KHz, 6 ch
Язык : English
ServiceKind/String : Complete Main
Default : Нет
Forced : Нет
Текст #1
Идентификатор : 2
Формат : UTF-8
Идентификатор кодека : S_TEXT/UTF8
Идентификатор кодека/Информация : UTF-8 Plain Text
Продолжительность : 34 м. 57 с.
Битрейт : 89 бит/сек
ElementCount : 529
Размер потока : 22,9 Кбайт (0%)
Заголовок : Rus
Язык : Russian
Default : Да
Forced : Нет
Текст #2
Идентификатор : 3
Формат : UTF-8
Идентификатор кодека : S_TEXT/UTF8
Идентификатор кодека/Информация : UTF-8 Plain Text
Продолжительность : 34 м. 49 с.
Битрейт : 65 бит/сек
ElementCount : 628
Размер потока : 16,7 Кбайт (0%)
Заголовок : Original - SDH
Язык : English
Default : Нет
Forced : Нет
Текст #3
Идентификатор : 4
Формат : UTF-8
Идентификатор кодека : S_TEXT/UTF8
Идентификатор кодека/Информация : UTF-8 Plain Text
Продолжительность : 34 м. 26 с.
Битрейт : 57 бит/сек
ElementCount : 527
Размер потока : 14,6 Кбайт (0%)
Заголовок : Original
Язык : English
Default : Нет
Forced : Нет
Меню
00:00:00.000 : :Глава 01 / :Глава 01 / :Глава 01 / :Глава 01 / :Глава 01 / :Глава 01 / :Глава 01 / :Глава 01
--

Скриншоты

-- --

Как закачать отдельный файл

1. Открыть торрент
2. Снять галки с тех файлов торрента, которые мы не хотим закачивать. Оставляем только на нужных нам файлах (файле).
3. Нажать О.К.
В клиенте utorrent
Инструкция
1) Открыть торрент

2) Снять галки с тех файлов торрента, которые мы не хотим закачивать:
* либо вручную, снимая с каждого файла галку( скрин №1)
* либо, нажав кнопку "Снять метки (Select None)", сняв сразу со всех файлов(скрин №2)
№1

№2

Оставляем только на нужных нам файлах (файле).

3)Нажать О.К
-- -- --Релиз от: Nikolai.Baranov & PIRATIYA . Поблагодарить:
ЯД: 410017546713876
-- -- -- --Время раздачи : 24/7--
Профиль ЛС
Показать сообщения:    

Текущее время: 19-Мар 07:17

Часовой пояс: UTC + 3



Вы не можете начинать темы
Вы не можете отвечать на сообщения
Вы не можете редактировать свои сообщения
Вы не можете удалять свои сообщения
Вы не можете голосовать в опросах
Вы не можете прикреплять файлы к сообщениям
Вы не можете скачивать файлы
    Яндекс.Метрика