Поделись в соц. сетях


Baranov ®

Gender:
Unknown
Longevity:
1 year 11 months
Posts:
279

-- Чёрный пёс / BLACK DOG Серия 1-4 из 4 - Полный Комплект-- --Год выпуска: 2018
Выпущено: Россия , , ООО «Нью Арт Синема Продакшн», Беларусьфильм
Жанр: Боевик, драма
Продолжительность: 00:43:00
Серия: 1-4
Количество серий в сезоне: 4
Озвучка : -Русский --Релиз Без Рекламы --Кинопоиск--Режиссеры:
Александр Франскевич-Лайе, Владимир Янковский--В ролях: : Владимир Епифанцев, Карина Разумовская, Павел Делонг, Игорь Сигов, Павел Южаков-Харланчук, Александр Аверков, Виктория Маслова, Александр Франскевич-Лайе, Анатолий Кот, Владимир Иванов (VII)
-- Торговец оружием международного масштаба Грэг Бриннер заключает сделку с одним из главарей террористов из серийной группировки о поставках компонентов оружия массового поражения. Для захвата Бриннера и уничтожения террористов в Сирию отправляют спецгруппу под командованием майора Андрея Рубцова. В результате успешной операции Бриннер захвачен, но предательство "союзника" приводит к гибели группы Рубцова. Однако Андрей остаётся жив. Спустя время он возвращается в Россию, но ничего не помнит. Вернуть память и поймать Бриннера Рубцову помогает сотрудница международной антитеррористической организации Ольга Смирнова.-- --Качество :WEB-DLRip 1080p
Формат: MKV
Видео кодек: H264
Видео: 6001Кбит/сек,1920х1080(16.9),в 25.029кадр/сек,AVC (High@L4)(CABAC/2 Ref Frames)--Аудио Кодек:AC3
Аудио #1:AC3 , 384 Kbps, 48.0 KHz, 6 ch-Русский--

MediaInfo

Общее
Уникальный идентификатор : 65303680661310480438346670665865794215 (0x3121080A407E1C50C8DB68A8141292A7)
Полное имя : C:\Nikolai.Baranov & PIRATIYA\ЧЁРНЫЙ ПЁС - BLACK DOG\BLACK_DOG_2018_Е01-Е04_Н264_DD5.1_N.B_HD_1080_Rus\BLACK_DOG_2018_Е01-Е04_Н264_DD5.1_N.B_HD_1080_Rus.mkv
Формат : Matroska
Версия формата : Version 4
Размер файла : 7,49 Гбайт
Продолжительность : 2 ч. 47 м.
Режим общего битрейта : Переменный
Общий поток : 6387 Кбит/сек
Название фильма : BLACK DOG 2018 Е01-Е04 @ Nikolai.Baranov & PIRATIYA
Дата кодирования : UTC 2019-03-04 19:43:26
Программа кодирования : mkvmerge v31.0.0 ('Dolores In A Shoestand') 64-bit
Библиотека кодирования : libebml v1.3.6 + libmatroska v1.4.9
Видео
Идентификатор : 1
Формат : AVC
Формат/Информация : Advanced Video Codec
Профиль формата : High@L4
Настройки формата : CABAC / 2 Ref Frames
Параметр CABAC формата : Да
Параметр RefFrames формата : 2 кадра
Параметр GOP формата : M=2, N=15
Идентификатор кодека : V_MPEG4/ISO/AVC
Продолжительность : 2 ч. 47 м.
Вид битрейта : Переменный
Битрейт : 6001 Кбит/сек
Максимальный битрейт : 16,0 Мбит/сек
Ширина : 1920 пикселей
Высота : 1080 пикселей
Соотношение сторон : 16:9
Режим частоты кадров : Переменный
Частота кадров : 25,029 кадров/сек
Частота кадров в оригинале : 29,970 (30000/1001) кадров/сек
Цветовое пространство : YUV
Субдискретизация насыщенности : 4:2:0
Битовая глубина : 8 бит
Тип развёртки : Прогрессивная
Бит/(Пиксели*Кадры) : 0.116
Размер потока : 7,04 Гбайт (94%)
Заголовок : BLACK_DOG_2018_Е01-Е04_Н264_DD5.1_N.B_HD_1080_Rus
Язык : Russian
Default : Нет
Forced : Нет
Аудио
Идентификатор : 2
Формат : AC-3
Формат/Информация : Audio Coding 3
Коммерческое название : Dolby Digital
Идентификатор кодека : A_AC3
Продолжительность : 2 ч. 47 м.
Вид битрейта : Постоянный
Битрейт : 384 Кбит/сек
Каналы : 6 каналов
Channel layout : L R C LFE Ls Rs
Частота : 48,0 КГц
Частота кадров : 31,250 кадров/сек (1536 SPF)
Битовая глубина : 16 бит
Метод сжатия : С потерями
Размер потока : 461 Мбайт (6%)
Заголовок : Russian @DD5.1 AC3, 384 Kbps, 48.0 KHz, 6 ch
Язык : Russian
ServiceKind/String : Complete Main
Default : Да
Forced : Нет
Меню
00:00:00.000 : :Глава 01 / :Глава 01
--

Скриншоты

-- -- -- --Релиз от: Nikolai.Baranov & PIRATIYA . Поблагодарить:
ЯД: 410017546713876
-- -- -- --Время раздачи : 24/7--
Profile PM
Display posts:    

Current time is: 19-Jun 22:07

All times are UTC + 3



You cannot post new topics in this forum
You cannot reply to topics in this forum
You cannot edit your posts in this forum
You cannot delete your posts in this forum
You cannot vote in polls in this forum
You cannot attach files in this forum
You cannot download files in this forum
    Яндекс.Метрика