Поделись в соц. сетях


Baranov ®

Пол:
Не указан
Стаж:
1 год 5 месяцев
Сообщений:
242

--Медное солнце (Юбилейный встречный) / Copper Sun 1-2 фильм из 2 - Полный Комплект -- --Год выпуска: 2018
Выпущено: Россия , , МАРС Медиа, КАРГО по заказу телеканала НТВ
Жанр:Драма, военный
Продолжительность: 02:17:00
Серия: 1-2
Количество серий в сезоне: 2
Озвучка : -Русский --Релиз Без Рекламы--Кинопоиск--Режиссер:
Карен Оганесян--В ролях: Владимир Машков, Микаэл Джанибекян, Ольга Медынич, Алексей Шевченков, Максим Емельянов, Сабина Ахмедова, Зарина Мухитдинова, Олег Галахов, Владимир Нисков-- 1991-й год. Некогда единый и могучий Советский Союз раскалывается изнутри. Жители удалённого кишлака в Средней Азии с тревогой узнают новости о волнениях, прокатывающихся по стране. Но ведь здесь местные давно живут бок о бок с русскими. Герои нашей истории — музыканты полкового оркестра, отработавшие на свадьбе в дальнем ауле и вернувшиеся в часть к пустым баракам. Полк получил срочный приказ о передислокации и ушёл. В это время в горах появился отряд боевиков, перешедших границу для того, чтобы начать в стране гражданскую войну. И вместо того, чтобы догонять полк, музыканты, половина из которых ещё совсем мальчишки, остаются для защиты мира в посёлке. Это история про проверку на человечность, силу духа, умение устоять против волны ненависти и гнева, про любовь и, конечно, про музыку, которая побеждает там, где автоматы и танки бессильны.-- --Качество :WEB-DLRip 1080p
Формат: MKV
Видео кодек: H264
Видео: 6015Кбит/сек,1920х1080(16.9),в 25.053кадр/сек,AVC (High@L4)(CABAC/2 Ref Frames)--Аудио Кодек:AC3
Аудио #1:AC3 , 192 Kbps, 48.0 KHz, 6 ch-Русский--

MediaInfo

Общее
Уникальный идентификатор : 143331636341749734457572182502664608015 (0x6BD4AB464304591BD6DD37349748990F)
Полное имя : E:\Nikolai.Baranov & PIRATIYA\МЕДНОЕ СОЛНЦЕ - Copper Sun\COPPER_SUN_1-2_2018_RUSSIA_NTV_Н264_DD5.1_N.B_WEBRip_1080р_Rus\Copper_Sun_1-2_Н264_DD5.1_N.B_WEBRip_1080р_Rus.mkv
Формат : Matroska
Версия формата : Version 4
Размер файла : 11,2 Гбайт
Продолжительность : 4 ч. 17 м.
Режим общего битрейта : Переменный
Общий поток : 6209 Кбит/сек
Название фильма : Copper Sun 1-2 2018 @ Nikolai.Baranov & PIRATIYA
Дата кодирования : UTC 2018-11-28 08:25:07
Программа кодирования : mkvmerge v28.2.0 ('The Awakening') 64-bit
Библиотека кодирования : libebml v1.3.6 + libmatroska v1.4.9
Видео
Идентификатор : 1
Формат : AVC
Формат/Информация : Advanced Video Codec
Профиль формата : High@L4
Настройки формата : CABAC / 2 Ref Frames
Параметр CABAC формата : Да
Параметр RefFrames формата : 2 кадра
Параметр GOP формата : M=2, N=15
Идентификатор кодека : V_MPEG4/ISO/AVC
Продолжительность : 4 ч. 17 м.
Вид битрейта : Переменный
Битрейт : 6015 Кбит/сек
Максимальный битрейт : 16,0 Мбит/сек
Ширина : 1920 пикселей
Высота : 1080 пикселей
Соотношение сторон : 16:9
Режим частоты кадров : Переменный
Частота кадров : 25,000 кадров/сек
Частота кадров в оригинале : 29,970 (30000/1001) кадров/сек
Цветовое пространство : YUV
Субдискретизация насыщенности : 4:2:0
Битовая глубина : 8 бит
Тип развёртки : Прогрессивная
Бит/(Пиксели*Кадры) : 0.116
Размер потока : 10,8 Гбайт (97%)
Заголовок : Copper_Sun_1-2_Н264_DD5.1_N.B_WEBRip_1080р_Rus
Язык : Russian
Default : Да
Forced : Нет
Аудио
Идентификатор : 2
Формат : AC-3
Формат/Информация : Audio Coding 3
Коммерческое название : Dolby Digital
Идентификатор кодека : A_AC3
Продолжительность : 4 ч. 17 м.
Вид битрейта : Постоянный
Битрейт : 192 Кбит/сек
Каналы : 6 каналов
Channel layout : L R C LFE Ls Rs
Частота : 48,0 КГц
Частота кадров : 31,250 кадров/сек (1536 SPF)
Битовая глубина : 16 бит
Метод сжатия : С потерями
Размер потока : 354 Мбайт (3%)
Заголовок : Russian @DD5.1 AC3, 192 Kbps, 48.0 KHz, 6 ch
Язык : Russian
ServiceKind/String : Complete Main
Default : Да
Forced : Нет
Меню
00:00:00.000 : :Глава 01 / :Глава 01
--

Скриншоты

-- -- -- --Релиз от: Nikolai.Baranov & PIRATIYAПоблагодарить:
ЯД: 410017546713876
-- -- -- --Время раздачи : 24/7--
Профиль ЛС
Показать сообщения:    

Текущее время: 13-Дек 11:32

Часовой пояс: UTC + 3



Вы не можете начинать темы
Вы не можете отвечать на сообщения
Вы не можете редактировать свои сообщения
Вы не можете удалять свои сообщения
Вы не можете голосовать в опросах
Вы не можете прикреплять файлы к сообщениям
Вы не можете скачивать файлы
    Яндекс.Метрика