Поделись в соц. сетях


Baranov ®

Пол:
Не указан
Стаж:
1 год 8 месяцев
Сообщений:
264

-- --Леденящие душу приключения Сабрины / Chilling Adventures of Sabrina Сезон 1, Серия 1-11 из 11 - Полный Комплект-- --Год выпуска: 2018
Выпущено: США , Warner Bros. Television
Жанр:Ужасы, фэнтези, триллер, драма, детектив
Продолжительность: 01:00:00
Сезон:1
Серия: 1-11
Количество серий в сезоне: 11--Озвучка 1: - Дублированный - Пифагор -- Русский
Озвучка 2: - Профессиональный многоголосый -Lostfilm - Русский
Озвучка 3: Профессиональный многоголосый - BaibaKo -Русский
Озвучка 4: Профессиональный многоголосый - NewStudio -Русский
Озвучка 5: Профессиональный многоголосый - Английский- Оригинал
Субтитры: : Russian, English, English SDH --Релиз Без Рекламы --*
MDB --РежиссерЫ: Роб Шейденгланц, Мэгги Кили, Ли Толанд Кригер--В ролях: Кирнан Шипка, Росс Линч, Люси Дэвис, Мишель Гомес, Жасмин Сабино, Тати Габриэль, Ричард Койл, Миранда Отто, Бронсон Пиншо-- Обновленная версия приключений маленькой ведьмы Сабрины в виде тёмной истории взросления с элементами хоррора, оккультизма и ведьмовства. Сабрина пытается найти себя истинную между своими натурами смертной и ведьмы, при этом ей придётся противостоять злым силам, которые угрожают ей, её семье и всему миру людей.-- --Качество :WEB-DLRip 720p
Формат: MKV
Видео кодек: H264
Видео: 1857Кбит/сек,1280х580(2.2.1),в 23.976кадр/сек,AVC (High@L4.1)(CABAC/5 Ref Frames)--Аудио Кодек:AC3
Аудио #1:AC3 384 Kbps, 48.0 KHz, 6 ch- Дублированный-Русский
Аудио #2:AC3 384 Kbps, 48.0 KHz, 6 ch- Lostfilm -Русский
Аудио #3:AC3 , 384 Kbps, 48.0 KHz, 6 ch- BaibaKo -Русский
Аудио #4:AC3 , 384 Kbps, 48.0 KHz, 6 ch- NewStudio -Русский
Аудио #5: AC3, 640 Kbps, 48.0 KHz,6 ch - - English - Оригинал--

Доп. информация:

Звуковая дорожка сделана путем наложения чистого голоса озвучивателей на центральный канал оригинальной дорожки. Качество идентично звуковой дорожке.
--

Список эпизодов сезона


1 сезон 1 серия - Глава первая: Октябрьская страна - Chapter One: October Country
1 сезон 2 серия - Глава вторая: Тёмное крещение - Chapter Two: The Dark Baptism
1 сезон 3 серия - Глава третья: Суд над Сабриной Спеллман - Chapter Three: The Trial of Sabrina Spellman
1 сезон 4 серия - Глава четвёртая: Академия ведьм - Chapter Four: Witch Academy
1 сезон 5 серия - Глава пятая: Сны в ведьмином доме - Chapter Five: Dreams in a Witch House
1 сезон 6 серия - Глава шестая: Экзорцизм в Гриндэйле - Chapter Six: An Exorcism in Greendale
1 сезон 7 серия - Глава седьмая: Пир пиров - Chapter Seven: Feast of Feasts
1 сезон 8 серия - Глава восьмая: Поглощение - Chapter Eight: The Burial
1 сезон 9 серия - Глава девятая: Вернувшийся человек - Chapter Nine: The Returned Man
1 сезон 10 серия - Глава десятая: Час ведьмы - Chapter Ten: The Witching Hour
1 сезон 11 серия - Зимняя сказка - Chapter Eleven: A Midwinter's Tale
--

MediaInfo сезона

Общее
Уникальный идентификатор : 82747473800535317990331280221278863010 (0x3E409571648669CE0B8FDC6FDE487EA2)
Полное имя : E:\Nikolai.Baranov & PIRATIYA\Леденящие душу приключения Сабрины - Chilling Adventures of Sabrina\Chilling_Adventures_of_Sabrina_S01_Н264_DD5.1_N.B_HD_720_DUB_3xRus_Eng\Chilling_Adventures_of_Sabrina_S01E01_Н264_DD5.1_N.B_HD_720_DUB_3xRus_Eng.mkv
Формат : Matroska
Версия формата : Version 4
Размер файла : 1,74 Гбайт
Продолжительность : 1 ч. 1 м.
Общий поток : 4035 Кбит/сек
Название фильма : Chilling Adventures of Sabrina 2018 S01Е01 @ Nikolai.Baranov & PIRATIYA
Дата кодирования : UTC 2018-11-20 11:23:18
Программа кодирования : mkvmerge v28.2.0 ('The Awakening') 64-bit
Библиотека кодирования : libebml v1.3.6 + libmatroska v1.4.9
Видео
Идентификатор : 1
Формат : AVC
Формат/Информация : Advanced Video Codec
Профиль формата : High@L4.1
Настройки формата : CABAC / 5 Ref Frames
Параметр CABAC формата : Да
Параметр RefFrames формата : 5 кадров
Идентификатор кодека : V_MPEG4/ISO/AVC
Продолжительность : 1 ч. 1 м.
Битрейт : 1857 Кбит/сек
Ширина : 1280 пикселей
Высота : 580 пикселей
Соотношение сторон : 2,2:1
Режим частоты кадров : Постоянный
Частота кадров : 23,976 (24000/1001) кадра/сек
Цветовое пространство : YUV
Субдискретизация насыщенности : 4:2:0
Битовая глубина : 8 бит
Тип развёртки : Прогрессивная
Бит/(Пиксели*Кадры) : 0.104
Размер потока : 820 Мбайт (46%)
Заголовок : Chilling_Adventures_of_Sabrina_S01E01_Н264_DD5.1_N.B_HD_720_DUB_3xRus_Eng
Библиотека кодирования : x264 core 157 r2935 545de2f
Настройки программы : cabac=1 / ref=5 / deblock=1:0:0 / analyse=0x3:0x113 / me=umh / subme=8 / psy=1 / psy_rd=1.00:0.00 / mixed_ref=1 / me_range=16 / chroma_me=1 / trellis=2 / 8x8dct=1 / cqm=0 / deadzone=21,11 / fast_pskip=1 / chroma_qp_offset=-2 / threads=18 / lookahead_threads=3 / sliced_threads=0 / nr=0 / decimate=1 / interlaced=0 / bluray_compat=0 / constrained_intra=0 / bframes=3 / b_pyramid=2 / b_adapt=2 / b_bias=0 / direct=3 / weightb=1 / open_gop=0 / weightp=2 / keyint=240 / keyint_min=23 / scenecut=40 / intra_refresh=0 / rc_lookahead=50 / rc=crf / mbtree=1 / crf=18.0 / qcomp=0.60 / qpmin=0 / qpmax=69 / qpstep=4 / vbv_maxrate=62500 / vbv_bufsize=78125 / crf_max=0.0 / nal_hrd=none / filler=0 / ip_ratio=1.40 / aq=1:1.00
Язык : Russian
Default : Да
Forced : Нет
Цветовой диапазон : Limited
Коэффициенты матрицы : BT.709
Аудио #1
Идентификатор : 6
Формат : AC-3
Формат/Информация : Audio Coding 3
Коммерческое название : Dolby Digital
Идентификатор кодека : A_AC3
Продолжительность : 1 ч. 1 м.
Вид битрейта : Постоянный
Битрейт : 384 Кбит/сек
Каналы : 6 каналов
Channel layout : L R C LFE Ls Rs
Частота : 48,0 КГц
Частота кадров : 31,250 кадров/сек (1536 SPF)
Битовая глубина : 16 бит
Метод сжатия : С потерями
Размер потока : 170 Мбайт (10%)
Заголовок : DUB @DD5.1 AC3, 384 Kbps, 48.0 KHz, 6 ch
Язык : Russian
ServiceKind/String : Complete Main
Default : Да
Forced : Нет
Аудио #2
Идентификатор : 7
Формат : AC-3
Формат/Информация : Audio Coding 3
Коммерческое название : Dolby Digital
Идентификатор кодека : A_AC3
Продолжительность : 1 ч. 1 м.
Вид битрейта : Постоянный
Битрейт : 384 Кбит/сек
Каналы : 6 каналов
Channel layout : L R C LFE Ls Rs
Частота : 48,0 КГц
Частота кадров : 31,250 кадров/сек (1536 SPF)
Битовая глубина : 16 бит
Метод сжатия : С потерями
Размер потока : 170 Мбайт (10%)
Заголовок : MVO LostFilm @DD5.1 AC3, 384 Kbps, 48.0 KHz, 6 ch
Язык : Russian
ServiceKind/String : Complete Main
Default : Нет
Forced : Нет
Аудио #3
Идентификатор : 8
Формат : AC-3
Формат/Информация : Audio Coding 3
Коммерческое название : Dolby Digital
Идентификатор кодека : A_AC3
Продолжительность : 1 ч. 1 м.
Вид битрейта : Постоянный
Битрейт : 384 Кбит/сек
Каналы : 6 каналов
Channel layout : L R C LFE Ls Rs
Частота : 48,0 КГц
Частота кадров : 31,250 кадров/сек (1536 SPF)
Битовая глубина : 16 бит
Метод сжатия : С потерями
Размер потока : 170 Мбайт (10%)
Заголовок : MVO BaibaKo @DD5.1 AC3, 384 Kbps, 48.0 KHz, 6 ch
Язык : Russian
ServiceKind/String : Complete Main
Default : Нет
Forced : Нет
Аудио #4
Идентификатор : 9
Формат : AC-3
Формат/Информация : Audio Coding 3
Коммерческое название : Dolby Digital
Идентификатор кодека : A_AC3
Продолжительность : 1 ч. 1 м.
Вид битрейта : Постоянный
Битрейт : 384 Кбит/сек
Каналы : 6 каналов
Channel layout : L R C LFE Ls Rs
Частота : 48,0 КГц
Частота кадров : 31,250 кадров/сек (1536 SPF)
Битовая глубина : 16 бит
Метод сжатия : С потерями
Размер потока : 170 Мбайт (10%)
Заголовок : MVO NewStudio @DD5.1 AC3, 384 Kbps, 48.0 KHz, 6 ch
Язык : Russian
ServiceKind/String : Complete Main
Default : Нет
Forced : Нет
Аудио #5
Идентификатор : 10
Формат : AC-3
Формат/Информация : Audio Coding 3
Коммерческое название : Dolby Digital
Идентификатор кодека : A_AC3
Продолжительность : 1 ч. 1 м.
Вид битрейта : Постоянный
Битрейт : 640 Кбит/сек
Каналы : 6 каналов
Channel layout : L R C LFE Ls Rs
Частота : 48,0 КГц
Частота кадров : 31,250 кадров/сек (1536 SPF)
Битовая глубина : 16 бит
Метод сжатия : С потерями
Размер потока : 283 Мбайт (16%)
Заголовок : Original@DD5.1 AC3 ,640 Kbps, 48.0 KHz, 6 ch
Язык : English
ServiceKind/String : Complete Main
Default : Нет
Forced : Нет
Текст #1
Идентификатор : 2
Формат : UTF-8
Идентификатор кодека : S_TEXT/UTF8
Идентификатор кодека/Информация : UTF-8 Plain Text
Продолжительность : 58 м. 9 с.
Битрейт : 2 бит/сек
ElementCount : 19
Размер потока : 904 байт (0%)
Заголовок : Rus - Forced
Язык : Russian
Default : Да
Forced : Нет
Текст #2
Идентификатор : 3
Формат : UTF-8
Идентификатор кодека : S_TEXT/UTF8
Идентификатор кодека/Информация : UTF-8 Plain Text
Продолжительность : 58 м. 17 с.
Битрейт : 97 бит/сек
ElementCount : 777
Размер потока : 41,4 Кбайт (0%)
Заголовок : Rus - Netflix
Язык : Russian
Default : Нет
Forced : Нет
Текст #3
Идентификатор : 4
Формат : UTF-8
Идентификатор кодека : S_TEXT/UTF8
Идентификатор кодека/Информация : UTF-8 Plain Text
Продолжительность : 1 ч. 0 м.
Битрейт : 72 бит/сек
ElementCount : 916
Размер потока : 32,2 Кбайт (0%)
Заголовок : Original - SDH
Язык : English
Default : Нет
Forced : Нет
Текст #4
Идентификатор : 5
Формат : UTF-8
Идентификатор кодека : S_TEXT/UTF8
Идентификатор кодека/Информация : UTF-8 Plain Text
Продолжительность : 59 м. 14 с.
Битрейт : 66 бит/сек
ElementCount : 784
Размер потока : 28,6 Кбайт (0%)
Заголовок : Original
Язык : English
Default : Нет
Forced : Нет
Меню
00:00:00.000 : :Глава 01 / :Глава 01 / :Глава 01 / :Глава 01 / :Глава 01 / :Глава 01 / :Глава 01 / :Глава 01 / :Глава 01 / :Глава 01
--

Скриншоты

-- Сезон 1--

Как закачать отдельный файл

1. Открыть торрент
2. Снять галки с тех файлов торрента, которые мы не хотим закачивать. Оставляем только на нужных нам файлах (файле).
3. Нажать О.К.
В клиенте utorrent
Инструкция
1) Открыть торрент

2) Снять галки с тех файлов торрента, которые мы не хотим закачивать:
* либо вручную, снимая с каждого файла галку( скрин №1)
* либо, нажав кнопку "Снять метки (Select None)", сняв сразу со всех файлов(скрин №2)
№1

№2

Оставляем только на нужных нам файлах (файле).

3)Нажать О.К
-- -- --Внимание!!! 26.12. 2018. РАЗДАЧА ОБНОВЛЕНА. ДОБАВЛЕНА 11 серия - Зимняя сказка .
ФИНАЛ СЕЗОНА .
ОБНОВИТЕ ТОРЕНТ ФАЙЛ. ПРИЯТНОГО ПРОСМОТРА . Поблагодарить:
ЯД: 410017546713876
--Релиз от: Nikolai.Baranov & PIRATIYA -- -- -- --Время раздачи : 24/7--
Профиль ЛС
Показать сообщения:    

Текущее время: 20-Мар 20:47

Часовой пояс: UTC + 3



Вы не можете начинать темы
Вы не можете отвечать на сообщения
Вы не можете редактировать свои сообщения
Вы не можете удалять свои сообщения
Вы не можете голосовать в опросах
Вы не можете прикреплять файлы к сообщениям
Вы не можете скачивать файлы
    Яндекс.Метрика