Поделись в соц. сетях


Враг Нароода ®

Gender:
Male
Longevity:
4 years 8 months
Posts:
458

Location: КРАСНОГОРСК

--Восставший (Воскресение Христа) / Risen-- --[Год выпуска:2016
Выпущено:США , Liddell Entertainment, Affirm Films, Columbia Pictures, Patrick Aiello Productions
Жанр: Боевик, драма, детектив, приключения
Продолжительность: 0 01:47:38
Озвучка 1: Профессиональный многоголосый [iTunes] -(Лицензия BD CEE)-Русский
Озвучка 2: Профессиональный многоголосый [iTunes] - Украинский]
Озвучка 3: Профессиональный многоголосый - English- Английский - Оригинал
Озвучка 4: (Audio Commentary with Producer Patrick Aiello and Writer Paul Aiello) - English- Английский - Оригинал
Субтитры: : Russian , Ukrainian , English - iTunes--IMDB --Режиссер: Кевин Рейнольдс--В ролях: Джозеф Файнс, Том Фелтон, Питер Фёрт, Клифф Кёртис, Мария Ботто, Стефан Хаган, Стюарт Скудамор, Миш Бойко, Марк Киллин, Алекс Маруни, Фрида Коши, Энди Гэтергуд, Антонио Гил-Мартинес, Селва Расалингам, Стефен Грейф
-- Фильм раскрывает одну из историй о Христе, правда речь пойдет не о его жизни, а о периоде сорока дней после его смерти. Однако это время, как никакое другое, раскрывает саму суть божественного провидения. Как известно, в момент распятия Иисус воскликнул, что будет жить еще три дня, никто этому не поверил, однако к гробу была приставлена охрана, дабы тело не выкрали. Власти подозревали, что на это способны верующие или же ученики Иисуса, поэтому усыпальницу охраняли день и ночь. Через положенный срок римский прокуратор Понтий Пилат приходит взглянуть на тело, вот только того там не оказывается. Прокуратор напуган, пусть он и сам казнил его, но покоя не дают слова о воскрешении, к тому же со дня на день ожидается визит императора. Взбешенный Пилат направляет верных центурионов на поиски тела, попутно они должны разузнать все, что известно о чудесном воскрешении. Главный герой фильма — закоренелый атеист, римский центурион Клавиус, также брошенный Понтием Пилатом на розыск истины, направляется в Иерусалим, но вот только собирая факты и проводя расследование, он все больше и больше начинает сомневаться в своих убеждениях. Вернется ли он назад с доказательствами обмана или же принесет в своем сердце веру, которая уже не угаснет?
-- --Качество :WEB-DLRip
Формат: MKV
Видео кодек: H264
Видео: 1997Кбит/сек,720х400(16.9),в 23.976кадр/сек,AVC(Baseline@L3)(1Ref Frames)
Аудио Кодек:AC3
Аудио #1:AC3 , 384 Kbps, 48.0 KHz, 6 ch-Профессиональный многоголосый [iTunes] -Русский
Аудио #2:AАC , 192Kbps, 48.0 KHz, 6 ch-Профессиональный многоголосый - Ukrainian -Украинский
Аудио #3: AАC, 640 Kbps, 48.0 KHz, 6 ch - - English- Английский - Оригинал
Аудио #4: AАC, 192 Kbps, 48.0 KHz, 6 ch -Audio Commentary with Producer Patrick Aiello and Writer Paul Aiello - English- Английский - Оригинал--

MediaInfo

Общее
Уникальный идентификатор : 178391312945008646662111360322099667501 (0x8634EAC9D0571B92A718FAA78D2AE22D)
Полное имя : C:\ПИРАТИЯ(PIRATIYA)\ВОСТАВШИЙ (Воскресение Христа)(Risen)\RISEN_2016_Rus_iTunes_Ukr_Eng_H264_DD5.1_N.B_BDRip_400p\RISEN_2016_Rus_iTunes_Ukr_Eng_H264_DD5.1_N.B_BDRip_400p.mkv
Формат : Matroska
Версия формата : Version 4 / Version 2
Размер файла : 3,51 Гбайт
Продолжительность : 1 ч. 47 м.
Режим общего битрейта : Переменный
Общий поток : 4665 Кбит/сек
Название фильма : RISEN_2016_Rus_iTunes_Ukr_Eng_H264_DD5.1_N.B_BDRip_400p
Дата кодирования : UTC 2016-12-27 16:20:10
Программа кодирования : mkvmerge v9.7.0 ('Numbers') 64bit
Библиотека кодирования : libebml v1.3.4 + libmatroska v1.4.5
Видео
Идентификатор : 1
Формат : AVC
Формат/Информация : Advanced Video Codec
Профиль формата : Baseline@L3
Параметр CABAC формата : Нет
Параметр ReFrames формата : 1 кадр
Параметр GOP формата : M=1, N=12
Идентификатор кодека : V_MPEG4/ISO/AVC
Продолжительность : 1 ч. 47 м.
Вид битрейта : Переменный
Битрейт : 2997 Кбит/сек
Максимальный битрейт : 4500 Кбит/сек
Ширина : 720 пикселей
Высота : 400 пикселей
Соотношение сторон : 16:9
Режим частоты кадров : Постоянный
Частота кадров : 23,976 (24000/1001) кадра/сек
Частота кадров в оригинале : 24,000 кадра/сек
Цветовое пространство : YUV
Субдискретизация насыщенности : 4:2:0
Битовая глубина : 8 бит
Тип развёртки : Прогрессивная
Бит/(Пиксели*Кадры) : 0.434
Размер потока : 2,25 Гбайт (64%)
Заголовок : RISEN_2016_Rus_iTunes_Ukr_Eng_H264_DD5.1_N.B_BDRip_400p
Язык : Russian
Default : Да
Forced : Нет
Аудио #1
Идентификатор : 8
Формат : AC-3
Формат/Информация : Audio Coding 3
Расширение режима : CM (complete main)
Параметр Endianness формата : Big
Идентификатор кодека : A_AC3
Продолжительность : 1 ч. 47 м.
Вид битрейта : Постоянный
Битрейт : 640 Кбит/сек
Каналы : 6 каналов
Расположение каналов : Front: L C R, Side: L R, LFE
Частота : 48,0 КГц
Частота кадров : 31,250 кадров/сек (1536 spf)
Битовая глубина : 16 бит
Метод сжатия : С потерями
Размер потока : 493 Мбайт (14%)
Заголовок : MVO iTunes Rus @DD5.1 AC3, 640 Kbps, 48.0 KHz, 6 ch
Язык : Russian
Default : Да
Forced : Нет
Аудио #2
Идентификатор : 9
Формат : AC-3
Формат/Информация : Audio Coding 3
Расширение режима : CM (complete main)
Параметр Endianness формата : Big
Идентификатор кодека : A_AC3
Продолжительность : 1 ч. 47 м.
Вид битрейта : Постоянный
Битрейт : 192 Кбит/сек
Каналы : 6 каналов
Расположение каналов : Front: L C R, Side: L R, LFE
Частота : 48,0 КГц
Частота кадров : 31,250 кадров/сек (1536 spf)
Битовая глубина : 16 бит
Метод сжатия : С потерями
Размер потока : 148 Мбайт (4%)
Заголовок : MVO iTunes Ukr @DD5.1 AC3, 192 Kbps, 48.0 KHz, 6 ch
Язык : Ukrainian
Default : Нет
Forced : Нет
Аудио #3
Идентификатор : 10
Формат : AC-3
Формат/Информация : Audio Coding 3
Расширение режима : CM (complete main)
Параметр Endianness формата : Big
Идентификатор кодека : A_AC3
Продолжительность : 1 ч. 47 м.
Вид битрейта : Постоянный
Битрейт : 640 Кбит/сек
Каналы : 6 каналов
Расположение каналов : Front: L C R, Side: L R, LFE
Частота : 48,0 КГц
Частота кадров : 31,250 кадров/сек (1536 spf)
Битовая глубина : 16 бит
Метод сжатия : С потерями
Размер потока : 493 Мбайт (14%)
Заголовок : Original@DD5.1 AC3 ,640 Kbps, 48.0 KHz, 6 ch
Язык : English
Default : Нет
Forced : Нет
Аудио #4
Идентификатор : 11
Формат : AC-3
Формат/Информация : Audio Coding 3
Расширение режима : CM (complete main)
Параметр Endianness формата : Big
Идентификатор кодека : A_AC3
Продолжительность : 1 ч. 47 м.
Вид битрейта : Постоянный
Битрейт : 192 Кбит/сек
Каналы : 6 каналов
Расположение каналов : Front: L C R, Side: L R, LFE
Частота : 48,0 КГц
Частота кадров : 31,250 кадров/сек (1536 spf)
Битовая глубина : 16 бит
Метод сжатия : С потерями
Размер потока : 148 Мбайт (4%)
Заголовок : Commentary @DD5.1 AC3, 192 Kbps, 48.0 KHz, 6 ch
Язык : English
Default : Нет
Forced : Нет
Текст #1
Идентификатор : 2
Формат : UTF-8
Идентификатор кодека : S_TEXT/UTF8
Идентификатор кодека/Информация : UTF-8 Plain Text
Продолжительность : 1 ч. 38 м.
Битрейт : 62 бит/сек
Count of elements : 991
Размер потока : 45,1 Кбайт (0%)
Заголовок : Rus iTunes
Язык : Russian
Default : Нет
Forced : Нет
Текст #2
Идентификатор : 3
Формат : UTF-8
Идентификатор кодека : S_TEXT/UTF8
Идентификатор кодека/Информация : UTF-8 Plain Text
Продолжительность : 1 ч. 37 м.
Битрейт : 65 бит/сек
Count of elements : 990
Размер потока : 46,8 Кбайт (0%)
Заголовок : Ukr iTunes
Язык : Ukrainian
Default : Нет
Forced : Нет
Текст #3
Идентификатор : 4
Формат : UTF-8
Идентификатор кодека : S_TEXT/UTF8
Идентификатор кодека/Информация : UTF-8 Plain Text
Продолжительность : 1 ч. 36 м.
Битрейт : 37 бит/сек
Count of elements : 988
Размер потока : 26,3 Кбайт (0%)
Заголовок : Eng iTunes
Язык : English
Default : Нет
Forced : Нет
Текст #4
Идентификатор : 5
Формат : UTF-8
Идентификатор кодека : S_TEXT/UTF8
Идентификатор кодека/Информация : UTF-8 Plain Text
Продолжительность : 1 ч. 36 м.
Битрейт : 36 бит/сек
Count of elements : 989
Размер потока : 26,2 Кбайт (0%)
Заголовок : Original
Язык : English
Default : Нет
Forced : Нет
Текст #5
Идентификатор : 6
Формат : UTF-8
Идентификатор кодека : S_TEXT/UTF8
Идентификатор кодека/Информация : UTF-8 Plain Text
Продолжительность : 1 ч. 38 м.
Битрейт : 44 бит/сек
Count of elements : 1238
Размер потока : 31,7 Кбайт (0%)
Заголовок : SDH
Язык : English
Default : Нет
Forced : Нет
Текст #6
Идентификатор : 7
Формат : UTF-8
Идентификатор кодека : S_TEXT/UTF8
Идентификатор кодека/Информация : UTF-8 Plain Text
Продолжительность : 1 ч. 42 м.
Битрейт : 88 бит/сек
Count of elements : 1652
Размер потока : 66,0 Кбайт (0%)
Заголовок : Commentary
Язык : English
Default : Нет
Forced : Нет
Меню
00:00:00.000 : en:Глава 01 / en:Глава 01 / en:Глава 01 / en:Глава 01 / en:Глава 01 / en:Глава 01 / en:Глава 01 / en:Глава 01 / en:Глава 01 / en:Глава 01 / en:Глава 01
--

Скриншоты

-- -- -- --Релиз от: Nikolai.Baranov & PIRATIYA -- -- -- --
Profile PM
Display posts:    

Current time is: 20-Apr 03:51

All times are UTC + 3



You cannot post new topics in this forum
You cannot reply to topics in this forum
You cannot edit your posts in this forum
You cannot delete your posts in this forum
You cannot vote in polls in this forum
You cannot attach files in this forum
You cannot download files in this forum
    Яндекс.Метрика