Поделись в соц. сетях


Враг Нароода ®

Gender:
Male
Longevity:
4 years 11 months
Posts:
456

Location: КРАСНОГОРСК

--Варкрафт / Warcraft-- --Год выпуска: 2016
Выпущено: США , Blizzard Entertainment, Legendary Pictures, Universal Pictures
Жанр: Фэнтези, боевик, приключения
Продолжительность: 02:03:07
Озвучка 1: Дублированный (iTunes)-Русский
Озвучка 2: Профессиональный многоголосый -Английский -Оригинал
Субтитры: Русские ,Английские
-- --Режиссер:
Дункан Джонс--В ролях: Трэвис Фиммел, Пола Пэттон, Бен Фостер, Доминик Купер, Тоби Кеббелл, Бен Шнетцер, Роберт Казински, Клэнси Браун, Дэниэл Ву, Рут Негга
-- Веками магия и неприступные стены защищали людей от любых напастей. Но древнее зло, побежденное и забытое тысячелетия назад, пробудилось.
В самом сердце королевства открылся темный портал, и раса невиданных существ наводнила земли Азерота. Так начались события, призванные навсегда изменить судьбу этого мира.
-- --Качество :Blu-Ray Remux 1080p
Формат: MKV
Видео кодек: H264
Видео: 21,2Мбит/сек,1920х1080(2.40),в 23.976кадр/сек,AVC(High@L4,1)(CABAC/4 Ref Frames)
Аудио Кодек:AC3
Аудио #1:AC3 , 640 Kbps, 48.0 KHz, 6 ch- -Дублированный (iTunes)-Русский
Аудио #2: AC3, 640 Kbps, 48.0 KHz,6 ch - - English-Английский -Оригинал--

MediaInfo сезона

Общее
Уникальный идентификатор : 216007738931058561762974309682577202041 (0xA28193C77C838129ADA56E445184DB79)
Полное имя : D:\ВАРКРАФТ\WARCRAFT_2016_RUS_DUB_iTunes_N.B_Blu-Ray_Remux_1080p_Rus_Eng\WARCRAFT_2016_RUS_DUB_iTunes_N.B_Blu-Ray_Remux_1080p_Rus_Eng.mkv
Формат : Matroska
Версия формата : Version 4 / Version 2
Размер файла : 19,3 Гбайт
Продолжительность : 2 ч. 3 м.
Режим общего битрейта : Переменный
Общий поток : 22,5 Мбит/сек
Название фильма : WARCRAFT_2016_RUS_DUB_iTunes_N.B_Blu-Ray_Remux_1080p_Rus_Eng
Дата кодирования : UTC 2016-09-10 18:24:28
Программа кодирования : mkvmerge v9.4.0 ('Knurl') 64bit
Библиотека кодирования : libebml v1.3.4 + libmatroska v1.4.5
Видео
Идентификатор : 1
Формат : AVC
Формат/Информация : Advanced Video Codec
Профиль формата : High@L4.1
Параметр CABAC формата : Да
Параметр ReFrames формата : 4 кадра
Параметр GOP формата : M=3, N=12
Идентификатор кодека : V_MPEG4/ISO/AVC
Продолжительность : 2 ч. 3 м.
Вид битрейта : Переменный
Битрейт : 21,2 Мбит/сек
Максимальный битрейт : 31,5 Мбит/сек
Ширина : 1920 пикселей
Высота : 1080 пикселей
Соотношение сторон : 16:9
Режим частоты кадров : Постоянный
Частота кадров : 23,976 (24000/1001) кадра/сек
Цветовое пространство : YUV
Субдискретизация насыщенности : 4:2:0
Битовая глубина : 8 бит
Тип развёртки : Прогрессивная
Бит/(Пиксели*Кадры) : 0.426
Размер потока : 18,2 Гбайт (94%)
Заголовок : WARCRAFT_2016_RUS_DUB_iTunes_N.B_Blu-Ray_Remux_1080p_Rus_Eng
Язык : English
Default : Да
Forced : Нет
Аудио #1
Идентификатор : 4
Формат : AC-3
Формат/Информация : Audio Coding 3
Расширение режима : CM (complete main)
Параметр Endianness формата : Big
Идентификатор кодека : A_AC3
Продолжительность : 2 ч. 3 м.
Вид битрейта : Постоянный
Битрейт : 640 Кбит/сек
Каналы : 6 каналов
Расположение каналов : Front: L C R, Side: L R, LFE
Частота : 48,0 КГц
Частота кадров : 31,250 кадров/сек (1536 spf)
Метод сжатия : С потерями
Размер потока : 563 Мбайт (3%)
Заголовок : DUB iTunes DD5.1@640kbps
Язык : Russian
Default : Да
Forced : Нет
Аудио #2
Идентификатор : 5
Формат : AC-3
Формат/Информация : Audio Coding 3
Расширение режима : CM (complete main)
Параметр Endianness формата : Big
Идентификатор кодека : A_AC3
Продолжительность : 2 ч. 3 м.
Вид битрейта : Постоянный
Битрейт : 640 Кбит/сек
Каналы : 6 каналов
Расположение каналов : Front: L C R, Side: L R, LFE
Частота : 48,0 КГц
Частота кадров : 31,250 кадров/сек (1536 spf)
Метод сжатия : С потерями
Размер потока : 564 Мбайт (3%)
Заголовок : Original DD5.1@640kbps
Язык : English
Default : Нет
Forced : Нет
Текст #1
Идентификатор : 2
Формат : UTF-8
Идентификатор кодека : S_TEXT/UTF8
Идентификатор кодека/Информация : UTF-8 Plain Text
Продолжительность : 1 ч. 55 м.
Битрейт : 57 бит/сек
Count of elements : 1054
Размер потока : 48,5 Кбайт (0%)
Заголовок : Russian
Язык : Russian
Default : Да
Forced : Нет
Текст #2
Идентификатор : 3
Формат : UTF-8
Идентификатор кодека : S_TEXT/UTF8
Идентификатор кодека/Информация : UTF-8 Plain Text
Продолжительность : 1 ч. 52 м.
Битрейт : 36 бит/сек
Count of elements : 1186
Размер потока : 29,7 Кбайт (0%)
Заголовок : Original
Язык : English
Default : Нет
Forced : Нет
Меню
00:00:00.000 : en:00:00:00.000
00:09:26.483 : en:00:09:26.483
00:15:49.407 : en:00:15:49.407
00:22:36.146 : en:00:22:36.146
00:29:16.171 : en:00:29:16.171
00:38:43.321 : en:00:38:43.321
00:46:44.093 : en:00:46:44.093
00:53:02.679 : en:00:53:02.679
00:56:17.332 : en:00:56:17.332
01:02:43.927 : en:01:02:43.927
01:07:48.314 : en:01:07:48.314
01:12:24.549 : en:01:12:24.549
01:17:13.045 : en:01:17:13.045
01:22:45.669 : en:01:22:45.669
01:26:32.145 : en:01:26:32.145
01:32:29.669 : en:01:32:29.669
01:40:25.102 : en:01:40:25.102
01:47:38.118 : en:01:47:38.118
01:51:12.833 : en:01:51:12.833
01:53:58.832 : en:01:53:58.832
--

Скриншоты

-- -- -- - -- -- --
Profile PM
Display posts:    

Current time is: 24-Jul 03:18

All times are UTC + 3



You cannot post new topics in this forum
You cannot reply to topics in this forum
You cannot edit your posts in this forum
You cannot delete your posts in this forum
You cannot vote in polls in this forum
You cannot attach files in this forum
You cannot download files in this forum
    Яндекс.Метрика