Поделись в соц. сетях


Yuhanik ®

Gender:
Male
Longevity:
6 years 3 months
Posts:
727

Location: Москва

Барби и щенки в поисках сокровищ
Barbie & Her Sisters in the Great Puppy Adventurer
- Год выпуска: 2015
Страна: США
Жанр: мультфильм, приключения, семейный
Продолжительность: 01:15:09
Перевод: Профессиональный (Дублированный)
русские субтитры: нет-Режиссёр: Эндрю Тэн : Andrew Tan-Роли озвучивали: Челси Миллер, Морган Тейлор Кэмпбелл, Майкл Дэйнджерфилд, Тейлор Дайян Робинсон, Alyssya Swales-ОписаниеБарби с сёстрами и их очаровательные щенки отправляются на охоту за древними сокровищами.Однажды летом Барби и её сестры Скиппер, Стейси и Челси приезжают погостить к бабушке. Девочек ждет сюрприз: недавно у бабушкиной собаки родились чудесные щенки, и каждая из сестер выбирает себе любимца. Играя в прятки на чердаке, щенки находят старую карту и приносят ее девочкам. Бабушка рассказывает внучкам, что карта может привести их к давно потерянным сокровищам, спрятанным где-то в городе.
Сёстры, а вместе с ними и четверо любопытных щенков, отправляются на захватывающие поиски сокровищ! Во время своего путешествия они поймут, что величайшие сокровища на земле — это любовь и радость, которыми они делятся друг с другом.
- релиз: -Качество: BDRip-AVC [url=http://*.org/forum/viewtopic.php?t=5183342]BDRemux 1080p[/url] -Azureus-
Формат: MKV
Видео кодек: AVC
Аудио кодек: AC3
Видео: AVC 2738 Kbps 1152 x 648 (1.778) 23.976 fps
Аудио #1: [RUS] 48 kHz, AC3 Dolby Digital, 2/0 (L,R) ch, ~192 kbps
Аудио #2: [ENG] AC-3 448 Kbps 6 channels, 48.0 KHz
субтитры: английские
навигация по главам: 12 глав (не именные)
СкриншотыMediaInfo | Log
Log
x264 [info]: frame I:1137 Avg QP:14.38 size:125508
x264 [info]: frame P:29550 Avg QP:16.11 size: 27357
x264 [info]: frame B:77424 Avg QP:19.29 size: 8133
x264 [info]: consecutive B-frames: 3.9% 6.7% 18.2% 34.4% 11.6% 23.3% 1.0% 0.3% 0.2% 0.1% 0.0% 0.0% 0.0% 0.1% 0.2%
x264 [info]: mb I I16..4: 5.5% 75.1% 19.4%
x264 [info]: mb P I16..4: 0.8% 11.8% 1.7% P16..4: 21.6% 20.9% 10.5% 2.4% 0.4% skip:30.0%
x264 [info]: mb B I16..4: 0.1% 1.9% 0.2% B16..8: 20.8% 13.0% 2.7% direct: 3.6% skip:57.6% L0:35.2% L1:46.8% BI:18.0%
x264 [info]: 8x8 transform intra:81.9% inter:56.7%
x264 [info]: direct mvs spatial:100.0% temporal:0.0%
x264 [info]: coded y,uvDC,uvAC intra: 89.2% 86.8% 72.6% inter: 14.5% 14.0% 5.9%
x264 [info]: i16 v,h,dc,p: 20% 15% 5% 60%
x264 [info]: i8 v,h,dc,ddl,ddr,vr,hd,vl,hu: 14% 13% 8% 8% 10% 11% 11% 12% 14%
x264 [info]: i4 v,h,dc,ddl,ddr,vr,hd,vl,hu: 15% 12% 6% 7% 14% 13% 13% 9% 11%
x264 [info]: i8c dc,h,v,p: 35% 29% 21% 16%
x264 [info]: Weighted P-Frames: Y:1.9% UV:1.3%
x264 [info]: ref P L0: 58.1% 10.8% 13.4% 4.4% 3.4% 3.1% 2.1% 1.2% 1.1% 1.1% 1.0% 0.3% 0.0%
x264 [info]: ref B L0: 82.0% 8.0% 3.4% 1.7% 1.8% 1.0% 0.8% 0.6% 0.4% 0.2%
x264 [info]: ref B L1: 94.2% 5.8%
x264 [info]: kb/s:2804.53
x264 [total]: encoded 108111 frames, 8.30 fps, 2804.53 kb/s, duration 3:37:07.06
Format : Matroska
Format version : Version 4 / Version 2
File size : 1.81 GiB
Duration : 1h 15mn
Overall bit rate : 3 447 Kbps
Encoded date : UTC 2016-03-09 19:12:51
Writing application : mkvmerge v6.7.0 ('Back to the Ground') 32bit built on Jan 8 2014 15:03:17
Writing library : libebml v1.3.0 + libmatroska v1.4.1
Video
ID : 1
Format : AVC
Format/Info : Advanced Video Codec
Format profile : High@L4.1
Format settings, CABAC : Yes
Format settings, ReFrames : 11 frames
Codec ID : V_MPEG4/ISO/AVC
Duration : 1h 15mn
Bit rate : 2 738 Kbps
Width : 1 152 pixels
Height : 648 pixels
Display aspect ratio : 16:9
Frame rate mode : Constant
Frame rate : 23.976 (24000/1001) fps
Color space : YUV
Chroma subsampling : 4:2:0
Bit depth : 8 bits
Scan type : Progressive
Bits/(Pixel*Frame) : 0.153
Stream size : 1.44 GiB (79%)
Title : Barbie & Her Sisters in the Great Puppy Adventurer (2015) [*.org]
Writing library : x264 core 148 r2638kMod 7599210
Encoding settings : cabac=1 / ref=11 / deblock=1:-2:-2 / analyse=0x3:0x133 / me=umh / subme=11 / psy=1 / fade_compensate=0.00 / psy_rd=1.00:0.05 / mixed_ref=1 / me_range=48 / chroma_me=1 / trellis=2 / 8x8dct=1 / cqm=0 / deadzone=21,11 / fast_pskip=0 / chroma_qp_offset=-3 / threads=12 / lookahead_threads=3 / sliced_threads=0 / nr=0 / decimate=1 / interlaced=0 / bluray_compat=0 / constrained_intra=0 / fgo=0 / bframes=14 / b_pyramid=2 / b_adapt=2 / b_bias=0 / direct=3 / weightb=1 / open_gop=0 / weightp=2 / keyint=250 / keyint_min=23 / scenecut=40 / intra_refresh=0 / rc_lookahead=60 / rc=crf / mbtree=0 / crf=17.2000 / qcomp=0.60 / qpmin=0 / qpmax=69 / qpstep=4 / vbv_maxrate=50000 / vbv_bufsize=62500 / crf_max=0.0 / nal_hrd=none / filler=0 / ip_ratio=1.40 / pb_ratio=1.30 / aq=3:0.90
Language : English
Default : Yes
Forced : No
Audio #1
ID : 2
Format : AC-3
Format/Info : Audio Coding 3
Mode extension : CM (complete main)
Format settings, Endianness : Big
Codec ID : A_AC3
Duration : 1h 15mn
Bit rate mode : Constant
Bit rate : 192 Kbps
Channel(s) : 2 channels
Channel positions : Front: L R
Sampling rate : 48.0 KHz
Frame rate : 31.250 fps (1536 spf)
Compression mode : Lossy
Stream size : 103 MiB (6%)
Title : DUB
Language : Russian
Default : Yes
Forced : No
Audio #2
ID : 3
Format : AC-3
Format/Info : Audio Coding 3
Mode extension : CM (complete main)
Format settings, Endianness : Big
Codec ID : A_AC3
Duration : 1h 15mn
Bit rate mode : Constant
Bit rate : 448 Kbps
Channel(s) : 6 channels
Channel positions : Front: L C R, Side: L R, LFE
Sampling rate : 48.0 KHz
Frame rate : 31.250 fps (1536 spf)
Compression mode : Lossy
Stream size : 241 MiB (13%)
Title : Original
Language : English
Default : No
Forced : No
Text
ID : 4
Format : UTF-8
Codec ID : S_TEXT/UTF8
Codec ID/Info : UTF-8 Plain Text
Title : Full
Language : English
Default : No
Forced : No
Menu
00:00:00.000 : en:00:00:00.000
00:06:57.709 : en:00:06:57.709
00:12:39.217 : en:00:12:39.217
00:18:01.706 : en:00:18:01.706
00:23:17.605 : en:00:23:17.605
00:30:51.641 : en:00:30:51.641
00:35:56.613 : en:00:35:56.613
00:40:30.511 : en:00:40:30.511
00:46:41.424 : en:00:46:41.424
00:52:06.457 : en:00:52:06.457
01:00:04.601 : en:01:00:04.601
01:08:05.540 : en:01:08:05.540
Profile PM
Display posts:    

Current time is: 19-Jun 22:12

All times are UTC + 3



You cannot post new topics in this forum
You cannot reply to topics in this forum
You cannot edit your posts in this forum
You cannot delete your posts in this forum
You cannot vote in polls in this forum
You cannot attach files in this forum
You cannot download files in this forum
    Яндекс.Метрика