Поделись в соц. сетях


sergej644 ®

Gender:
Male
Longevity:
3 years 5 months
Posts:
73

-George Lynch (ex - Dokken) / Shadow Train (2CD)-- Год издания: 2015
Страна: USA
Жанр: Hard Rock
Продолжительность: 01:25:53-Лейбл издания: Rat Pak Records
Страна-выпуска диска: USA
Номер по каталогу: RPR603066
Формат: FLAC
Битрейт аудио: lossless
Тип рипа: image+.cue
Наличие сканов в содержимом раздачи: да
-

Трэклист

CD 1 | 00:39:49

01. Vulture (04:52)
02. Currency of Lies (04:14)
03. Power and Resistatce (04:15)
04. Now It's Dark (05:10)
05. Vulture (Slight Return) (02:15)
06. I Am Weapon (04:43)
07. Ghost (05:04)
08. White Clay (05:35)
09. Fight No More (03:45)

CD 2 | 00:46:04

01. Believe (06:12)
02. Blinded (03:53)
03. Fallen (05:09)
04. Glitter (04:49)
05. Prayer Mechanism (04:37)
06. Sioux Wake Up (04:04)
07. Trail Of Tears (06:01)
08. Under A Crooked Sky (06:11)
09. World On Fire (05:11)
-

Лог создания рипа

CD 1

Exact Audio Copy V1.0 beta 3 from 29. August 2011
EAC extraction logfile from 31. July 2015, 2:18
George Lynch / Shadow Train (cd1)
Used drive  : PIONEER BD-RW   BDR-TD03   Adapter: 0  ID: 1
Read mode               : Secure
Utilize accurate stream : Yes
Defeat audio cache      : Yes
Make use of C2 pointers : No
Read offset correction                      : 667
Overread into Lead-In and Lead-Out          : No
Fill up missing offset samples with silence : Yes
Delete leading and trailing silent blocks   : No
Null samples used in CRC calculations       : Yes
Used interface                              : Native Win32 interface for Win NT & 2000
Used output format              : User Defined Encoder
Selected bitrate                : 768 kBit/s
Quality                         : High
Add ID3 tag                     : No
Command line compressor         : C:\Program Files (x86)\Exact Audio Copy\FLAC\FLAC.EXE
Additional command line options : -6 -V -T "ARTIST=%artist%" -T "TITLE=%title%" -T "ALBUM=%albumtitle%" -T "DATE=%year%" -T "TRACKNUMBER=%tracknr%" -T "GENRE=%genre%" -T "COMMENT=%comment%" -T "BAND=%albuminterpret%" -T "ALBUMARTIST=%albuminterpret%" -T "COMPOSER=%composer%" %haslyrics%--tag-from-file=LYRICS="%lyricsfile%"%haslyrics% -T "DISCNUMBER=%cdnumber%" -T "TOTALDISCS=%totalcds%" -T "TOTALTRACKS=%numtracks%" %hascover%--picture="%coverfile%"%hascover% %source% -o %dest%
TOC of the extracted CD
     Track |   Start  |  Length  | Start sector | End sector
    ---------------------------------------------------------
        1  |  0:00.00 |  4:51.44 |         0    |    21868
        2  |  4:51.44 |  4:13.19 |     21869    |    40862
        3  |  9:04.63 |  4:14.14 |     40863    |    59926
        4  | 13:19.02 |  5:09.21 |     59927    |    83122
        5  | 18:28.23 |  2:14.43 |     83123    |    93215
        6  | 20:42.66 |  4:42.64 |     93216    |   114429
        7  | 25:25.55 |  5:03.39 |    114430    |   137193
        8  | 30:29.19 |  5:34.60 |    137194    |   162303
        9  | 36:04.04 |  3:44.40 |    162304    |   179143
Range status and errors
Selected range
     Filename C:\Users\Deris\Desktop\ly1n5ch\cd1\George Lynch - Shadow Train (cd1).wav
     Peak level 100.0 %
     Extraction speed 4.5 X
     Range quality 100.0 %
     Test CRC 6567F40A
     Copy CRC 6567F40A
     Copy OK
No errors occurred
AccurateRip summary
Track  1  not present in database
Track  2  not present in database
Track  3  not present in database
Track  4  not present in database
Track  5  not present in database
Track  6  not present in database
Track  7  not present in database
Track  8  not present in database
Track  9  not present in database
None of the tracks are present in the AccurateRip database
End of status report
---- CUETools DB Plugin V2.1.3
[CTDB TOCID: Nf8WZCFDzklaNN0xw0zKeuEna7w-] disk not present in database, Submit result: Nf8WZCFDzklaNN0xw0zKeuEna7w- has been uploaded

CD 2

Exact Audio Copy V1.0 beta 3 from 29. August 2011
EAC extraction logfile from 31. July 2015, 11:17
George Lynch / Shadow Train (CD2) (2015)
Used drive  : PIONEER BD-RW   BDR-TD03   Adapter: 0  ID: 1
Read mode               : Secure
Utilize accurate stream : Yes
Defeat audio cache      : Yes
Make use of C2 pointers : No
Read offset correction                      : 667
Overread into Lead-In and Lead-Out          : No
Fill up missing offset samples with silence : Yes
Delete leading and trailing silent blocks   : No
Null samples used in CRC calculations       : Yes
Used interface                              : Native Win32 interface for Win NT & 2000
Used output format              : User Defined Encoder
Selected bitrate                : 768 kBit/s
Quality                         : High
Add ID3 tag                     : No
Command line compressor         : C:\Program Files (x86)\Exact Audio Copy\FLAC\FLAC.EXE
Additional command line options : -6 -V -T "ARTIST=%artist%" -T "TITLE=%title%" -T "ALBUM=%albumtitle%" -T "DATE=%year%" -T "TRACKNUMBER=%tracknr%" -T "GENRE=%genre%" -T "COMMENT=%comment%" -T "BAND=%albuminterpret%" -T "ALBUMARTIST=%albuminterpret%" -T "COMPOSER=%composer%" %haslyrics%--tag-from-file=LYRICS="%lyricsfile%"%haslyrics% -T "DISCNUMBER=%cdnumber%" -T "TOTALDISCS=%totalcds%" -T "TOTALTRACKS=%numtracks%" %hascover%--picture="%coverfile%"%hascover% %source% -o %dest%
TOC of the extracted CD
     Track |   Start  |  Length  | Start sector | End sector
    ---------------------------------------------------------
        1  |  0:00.00 |  6:11.38 |         0    |    27862
        2  |  6:11.38 |  3:52.45 |     27863    |    45307
        3  | 10:04.08 |  5:08.60 |     45308    |    68467
        4  | 15:12.68 |  4:48.32 |     68468    |    90099
        5  | 20:01.25 |  4:36.10 |     90100    |   110809
        6  | 24:37.35 |  4:03.52 |    110810    |   129086
        7  | 28:41.12 |  6:00.62 |    129087    |   156148
        8  | 34:41.74 |  6:10.44 |    156149    |   183942
        9  | 40:52.43 |  5:10.64 |    183943    |   207256
Range status and errors
Selected range
     Filename C:\Users\Deris\Desktop\ly1n5ch\cd2\George Lynch - Shadow Train (CD2) (2015).wav
     Peak level 100.0 %
     Extraction speed 4.6 X
     Range quality 100.0 %
     Test CRC 51B7B99C
     Copy CRC 51B7B99C
     Copy OK
No errors occurred
AccurateRip summary
Track  1  not present in database
Track  2  not present in database
Track  3  not present in database
Track  4  not present in database
Track  5  not present in database
Track  6  not present in database
Track  7  not present in database
Track  8  not present in database
Track  9  not present in database
None of the tracks are present in the AccurateRip database
End of status report
---- CUETools DB Plugin V2.1.3
[CTDB TOCID: wnZxSyjT1KrWaoQhVSPMZynTmh0-] disk not present in database, Submit result: duplicate submission

Индексная карта (non-compilant .cue)

CD 1

REM GENRE "Heavy Metal"
REM DATE 2015
REM DISCID 61095409
REM COMMENT "ExactAudioCopy v1.0b3"
PERFORMER "George Lynch"
TITLE "Shadow Train (CD1)"
FILE "George Lynch - Shadow Train (cd1).flac" WAVE
  TRACK 01 AUDIO
    TITLE "Vulture"
    PERFORMER "George Lynch"
    INDEX 01 00:00:00
  TRACK 02 AUDIO
    TITLE "Currency of Lies"
    PERFORMER "George Lynch"
    INDEX 00 04:51:43
    INDEX 01 04:51:44
  TRACK 03 AUDIO
    TITLE "Power and Resistatce"
    PERFORMER "George Lynch"
    INDEX 00 09:04:62
    INDEX 01 09:04:63
  TRACK 04 AUDIO
    TITLE "Now It's Dark"
    PERFORMER "George Lynch"
    INDEX 00 13:19:01
    INDEX 01 13:19:02
  TRACK 05 AUDIO
    TITLE "Vulture (Slight Return)"
    PERFORMER "George Lynch"
    INDEX 00 18:28:22
    INDEX 01 18:28:23
  TRACK 06 AUDIO
    TITLE "I Am Weapon"
    PERFORMER "George Lynch"
    INDEX 00 20:42:65
    INDEX 01 20:42:66
  TRACK 07 AUDIO
    TITLE "Ghost"
    PERFORMER "George Lynch"
    INDEX 00 25:25:54
    INDEX 01 25:25:55
  TRACK 08 AUDIO
    TITLE "White Clay"
    PERFORMER "George Lynch"
    INDEX 00 30:29:18
    INDEX 01 30:29:19
  TRACK 09 AUDIO
    TITLE "Fight No More"
    PERFORMER "George Lynch"
    INDEX 00 36:04:03
    INDEX 01 36:04:04

CD 2

REM GENRE Rock
REM DATE 2015
REM DISCID 6D0ACB09
REM COMMENT "ExactAudioCopy v1.0b3"
PERFORMER "George Lynch"
TITLE "Shadow Train (CD2)"
FILE "George Lynch - Shadow Train (CD2) (2015).flac" WAVE
  TRACK 01 AUDIO
    TITLE "Believe"
    PERFORMER "George Lynch"
    INDEX 01 00:00:00
  TRACK 02 AUDIO
    TITLE "Blinded"
    PERFORMER "George Lynch"
    INDEX 01 06:11:38
  TRACK 03 AUDIO
    TITLE "Fallen"
    PERFORMER "George Lynch"
    INDEX 01 10:04:08
  TRACK 04 AUDIO
    TITLE "Glitter"
    PERFORMER "George Lynch"
    INDEX 01 15:12:68
  TRACK 05 AUDIO
    TITLE "Prayer Mechanism"
    PERFORMER "George Lynch"
    INDEX 01 20:01:25
  TRACK 06 AUDIO
    TITLE "Sioux Wake Up"
    PERFORMER "George Lynch"
    INDEX 01 24:37:35
  TRACK 07 AUDIO
    TITLE "Trail Of Tears"
    PERFORMER "George Lynch"
    INDEX 01 28:41:12
  TRACK 08 AUDIO
    TITLE "Under A Crooked Sky"
    PERFORMER "George Lynch"
    INDEX 01 34:41:74
  TRACK 09 AUDIO
    TITLE "World On Fire"
    PERFORMER "George Lynch"
    INDEX 01 40:52:43
--
Profile PM

Fender61

Gender:
Unknown
Longevity:
1 year 9 months
Posts:
1

Интересный альбом, своеобразный гитарист! Рекомендую!

Post 31-Jul-2017 11:22 (after 1 year 6 months)

Quote

Profile PM
Display posts:    

Current time is: 22-May 09:51

All times are UTC + 3



You cannot post new topics in this forum
You cannot reply to topics in this forum
You cannot edit your posts in this forum
You cannot delete your posts in this forum
You cannot vote in polls in this forum
You cannot attach files in this forum
You cannot download files in this forum
    Яндекс.Метрика