Поделись в соц. сетях


Yuhanik ®

Gender:
Male
Longevity:
6 years 3 months
Posts:
727

Location: Москва

Хранитель Лев: Герои саванны / The Lion Guard: Return of the Roar-Страна: США
Жанр: мультфильм, семейный, приключения
Продолжительность: 00:42:23
Год выпуска: 2015
Перевод: Профессиональный (дублированный)
Русские субтитры: нет-Режиссёр: Хауи Паркинс / Howy Parkins- -Описание: Встречайте Кайона, младшего детеныша Симбы и Налы! Новому герою африканской саванны предстоит стать лидером львиной охраны, состоящей из самых сильных, храбрых, быстрых и зорких представителей прайда. Именно Киан должен определить, кто займет почетное место в рядах стражей порядка.-Семпл: http://sendfile.su/1189545-Качество: DVB (Канал "Disney")
Формат: MPG
Видео: 720x576 (4:3) @ 768x576, 25.000 fps, MPEG-2 Video, ~1779 kbps, 0.172 bits/pixel
Аудио: 48.0 KHz, MPEG-1 Audio layer 2, 2 ch, 192 kbps
Субтитры: отсутствуют
MediaInfo
GeneralComplete name : The Lion Guard - Return of the Roar 2015 Disney Dub.mpgFormat : MPEG-PSFile size : 610 MiBDuration : 42mn 23sOverall bit rate mode : VariableOverall bit rate : 2 011 Kbps
VideoID : 224 (0xE0)Format : MPEG VideoFormat version : Version 2Format profile : Main@MainFormat settings, BVOP : YesFormat settings, Matrix : CustomFormat settings, GOP : VariableFormat settings, picture structure : FrameDuration : 42mn 23sBit rate mode : VariableBit rate : 1 779 KbpsMaximum bit rate : 15.0 MbpsWidth : 720 pixelsHeight : 576 pixelsDisplay aspect ratio : 4:3Frame rate : 25.000 fpsStandard : PALColor space : YUVChroma subsampling : 4:2:0Bit depth : 8 bitsScan type : InterlacedScan order : Top Field FirstCompression mode : LossyBits/(Pixel*Frame) : 0.172Time code of first frame : 00:00:00:00Time code source : Group of pictures headerGOP, Open/Closed : OpenGOP, Open/Closed of first frame : ClosedStream size : 539 MiB (88%)
AudioID : 192 (0xC0)Format : MPEG AudioFormat version : Version 1Format profile : Layer 2Duration : 42mn 23sBit rate mode : ConstantBit rate : 192 KbpsChannel(s) : 2 channelsSampling rate : 48.0 KHzCompression mode : LossyStream size : 58.2 MiB (10%)
Скриншоты
Profile PM
Display posts:    

Current time is: 19-Jun 21:59

All times are UTC + 3



You cannot post new topics in this forum
You cannot reply to topics in this forum
You cannot edit your posts in this forum
You cannot delete your posts in this forum
You cannot vote in polls in this forum
You cannot attach files in this forum
You cannot download files in this forum
    Яндекс.Метрика