Поделись в соц. сетях


maxim2012 ®

Пол:
Мужской
Стаж:
3 года 4 месяца
Сообщений:
118

Информация о фильме
Название: Мой грех
Год выхода: 2010
Жанр: Мелодрама
Режиссер: Сергей Виноградов
В ролях: Наталия Антонова, Олег Штефанко, Мария Климова, Сергей Серов, Анна Гуляренко, Наталия Винтилова, Владимир Скворцов, Кирилл Продолятченко, Сергей, Походаев, Александр Андриенко
О фильме:
История молодой женщины, которая много лет назад, в ранней юности, совершила странный поступок — отказалась от собственного ребёнка ради благополучия и карьеры. Спустя двадцать лет, оказавшись на грани жизни и смерти, она осознаёт всю тяжесть своей вины и твёрдо решает найти своего сына. Она отправляется в город своего детства и, пройдя череду препятствий, испытаний, разочарований, она в конце концов находит не только своего ребёнка, но и свою любовь.

Страна: Россия
Студия: Мостелефильм
Продолжительность: 01:36:40
Перевод: Не требуется
Файл
Кодек: XviD
Качество: HDTVRip
Видео: 624x352 (1.77:1), 25 fps, XviD build 73 ~940 kbps avg, 0.17 bit/pixel
Звук: 48 kHz, MPEG Layer 3, 2 ch, ~128.00 kbps avg
Субтитры: Отсутствуют

MI

General
Complete name : D:Изготовление риповMoj.Greh.2010.HDTVRip.Shkiper.avi
Format : AVI
Format/Info : Audio Video Interleave
File size : 746 MiB
Duration : 1h 36mn
Overall bit rate : 1 078 Kbps
Writing application : VirtualDubMod 1.5.10.3 | www.*.org || (build 2550/release)
Writing library : VirtualDubMod build 2550/release
Video
ID : 0
Format : MPEG-4 Visual
Format profile : Advanced Simple@L5
Format settings, BVOP : 1
Format settings, QPel : No
Format settings, GMC : No warppoints
Format settings, Matrix : Custom
Codec ID : XVID
Codec ID/Hint : XviD
Duration : 1h 36mn
Bit rate : 941 Kbps
Width : 624 pixels
Height : 352 pixels
Display aspect ratio : 16:9
Frame rate : 25.000 fps
Color space : YUV
Chroma subsampling : 4:2:0
Bit depth : 8 bits
Scan type : Progressive
Compression mode : Lossy
Bits/(Pixel*Frame) : 0.171
Stream size : 650 MiB (87%)
Writing library : XviD 73
Audio
ID : 1
Format : MPEG Audio
Format version : Version 1
Format profile : Layer 3
Mode : Joint stereo
Mode extension : MS Stereo
Codec ID : 55
Codec ID/Hint : MP3
Duration : 1h 36mn
Bit rate mode : Constant
Bit rate : 128 Kbps
Channel(s) : 2 channels
Sampling rate : 48.0 KHz
Compression mode : Lossy
Stream size : 88.5 MiB (12%)
Alignment : Aligned on interleaves
Interleave, duration : 40 ms (1.00 video frame)
Interleave, preload duratio : 504 ms
Writing library : LAME3.99r
Encoding settings : -m j -V 4 -q 2 -lowpass 17 -b 128

Скриншоты

Профиль ЛС
Показать сообщения:    

Текущее время: 23-Янв 16:42

Часовой пояс: UTC + 3



Вы не можете начинать темы
Вы не можете отвечать на сообщения
Вы не можете редактировать свои сообщения
Вы не можете удалять свои сообщения
Вы не можете голосовать в опросах
Вы не можете прикреплять файлы к сообщениям
Вы не можете скачивать файлы
    Яндекс.Метрика