Поделись в соц. сетях


www ®

Gender:
Male
Longevity:
6 years 1 month
Posts:
1636

Горцы от ума 5
Дата/Год выпуска: 2014
Страна: Россия. Республика Дагестан
Жанр: Комедия
Продолжительность: 01:14:37
Перевод: Не требуется
Режиссер: Руслан Хангишиев, Эльдар Иразиев
В главных ролях: Юсуп Омаров, Эльдар Иразиев, Халил Мусаев, Магомедамир Синдиков, Рукият Абдурахманова, Абав Хадырбекова, Магомед Нурмагомедов
Описание: Долгожданная новая серия дагестанской
комедии " Горцы от ума "
качество: AVC
формат: MP4
Видео: AVC, 854x480 (16:9), 931 kbps, 25.000 fps
Аудио: AAC, 128 kbps, 44,1 kHz, 2 ch
MediaInfo
C:\Users\Арсен\Desktop\Gorci.ot.yma.5_2014.mp4 General Complete name : C:\Users\Арсен\Desktop\Gorci.ot.yma.5_2014.mp4 Format : MPEG-4 Format profile : Base Media Codec ID : isom File size : 497 MiB Duration : 1h 14mn Overall bit rate mode : Variable Overall bit rate : 931 Kbps Writing application : Lavf54.59.106 Video #1 ID : 1 Format : AVC Format/Info : Advanced Video Codec Format profile : High@L3.0 Format settings, CABAC : Yes Format settings, ReFrames : 4 frames Codec ID : avc1 Codec ID/Info : Advanced Video Coding Duration : 1h 14mn Bit rate : 800 Kbps Width : 854 pixels Height : 480 pixels Display aspect ratio : 16:9 Original display aspect ratio : 16:9 Frame rate mode : Constant Frame rate : 25.000 fps Color space : YUV Chroma subsampling : 4:2:0 Bit depth : 8 bits Scan type : Progressive Bits/(Pixel*Frame) : 0.078 Stream size : 426 MiB (86%) Writing library : x264 core 129 Encoding settings : cabac=1 / ref=3 / deblock=1:0:0 / analyse=0x3:0x113 / me=hex / subme=7 / psy=1 / psy_rd=1.00:0.00 / mixed_ref=1 / me_range=16 / chroma_me=1 / trellis=1 / 8x8dct=1 / cqm=0 / deadzone=21,11 / fast_pskip=1 / chroma_qp_offset=-2 / threads=24 / lookahead_threads=4 / sliced_threads=0 / nr=0 / decimate=1 / interlaced=0 / bluray_compat=0 / constrained_intra=0 / bframes=3 / b_pyramid=2 / b_adapt=1 / b_bias=0 / direct=1 / weightb=1 / open_gop=0 / weightp=2 / keyint=250 / keyint_min=25 / scenecut=40 / intra_refresh=0 / rc_lookahead=40 / rc=abr / mbtree=1 / bitrate=800 / ratetol=1.0 / qcomp=0.60 / qpmin=0 / qpmax=69 / qpstep=4 / ip_ratio=1.40 / aq=1:1.00 Language : English Audio #2 ID : 2 Format : AAC Format/Info : Advanced Audio Codec Format profile : LC Codec ID : 40 Duration : 1h 14mn Bit rate mode : Variable Bit rate : 127 Kbps Maximum bit rate : 128 Kbps Channel(s) : 2 channels Channel positions : Front: L R Sampling rate : 44.1 KHz Compression mode : Lossy Stream size : 68.0 MiB (14%) Language : English
Скриншоты
Profile PM

leriiy

Gender:
Unknown
Longevity:
3 years 2 months
Posts:
1

А как качать если нет раздачи?!

Post 18-Mar-2016 13:57 (after 1 year 4 months)

Quote

Profile PM
Display posts:    

Current time is: 22-May 09:50

All times are UTC + 3



You cannot post new topics in this forum
You cannot reply to topics in this forum
You cannot edit your posts in this forum
You cannot delete your posts in this forum
You cannot vote in polls in this forum
You cannot attach files in this forum
You cannot download files in this forum
    Яндекс.Метрика