Поделись в соц. сетях


riper ®

Gender:
Male
Longevity:
6 years 4 months
Posts:
2001

- +100500 на ТВ. Выпуск №47 (2013) WEBRip - Режиссер / Телекомпания: Перец
Русское название: +100500 на ТВ
Год выпуска: 2013
Жанр: Юмор
Описание:
Один из популярнейших видеоблогов рунета теперь покоряет просторы телевидения! Встречайте Макса Голополосова в зомбоящиках страны!
В отличие от потуг Kamikadzedead быть оригинальным, Максим, он же AdamThomasMoran не стал изобретать велосипед, а просто скопировал популярного зарубежного коллегу Рея Вильяма Джонсона (Ray William Johnson) и даже не пытается это скрыть. Впрочем, его зарубежный прототип тоже не делает абсолютно ничего своего — он всего лишь комментирует популярные сетевые ролики, с бешеной интенсивностью мельтеша перед камерой и сыпля нецензурными выражениями.
P.S. Некоторые из этих видео могут оказаться баянами-бабаянами, но Максу как-то по***!
Ведущий: Максим Голополосов
Продолжительность: ~ 00:22:45
Видеокодек: XviD
Битрейт видео: ~1500 kb/s
Размер кадра: 704 x 400
Качество видео: WEBRip
Аудиокодек: MP3, 2ch.
Битрейт аудио: 128 kb/s

MediaInfo

Формат : AVI
Формат/Информация : Audio Video Interleave
Размер файла : 266 Мбайт
Продолжительность : 22 м.
Общий поток : 1637 Кбит/сек
Программа кодирования : VirtualDubMod 1.5.10.3 | [url=http://www.*.org]www.*.org[/url] || (build 2550/release)
Библиотека кодирования : VirtualDubMod build 2550/release
Видео
Идентификатор : 0
Формат : MPEG-4 Visual
Профиль формата : Advanced Simple@L5
Параметр BVOP формата : 2
Параметр QPel формата : Нет
Параметр GMC формата : Без точки перехода
Параметр матрицы формата : Default (MPEG)
Идентификатор кодека : XVID
Идентификатор кодека/Подсказка : XviD
Продолжительность : 22 м.
Битрейт : 1500 Кбит/сек
Ширина : 704 пикселя
Высота : 400 пикселей
Соотношение сторон : 16:9
Частота кадров : 25,000 кадров/сек
Цветовое пространство : YUV
Субдискретизация насыщенности : 4:2:0
Битовая глубина : 8 бит
Тип развёртки : Прогрессивная
Метод сжатия : С потерями
Бит/(Пиксели*Кадры) : 0.213
Размер потока : 244 Мбайт (92%)
Библиотека кодирования : XviD 63
Аудио
Идентификатор : 1
Формат : MPEG Audio
Версия формата : Version 1
Профиль формата : Layer 3
Режим : Joint stereo
Расширение режима : MS Stereo
Идентификатор кодека : 55
Идентификатор кодека/Подсказка : MP3
Продолжительность : 22 м.
Вид битрейта : Постоянный
Битрейт : 128 Кбит/сек
Каналы : 2 канала
Частота : 44,1 КГц
Метод сжатия : С потерями
Размер потока : 20,8 Мбайт (8%)
Выравнивание : Разделение по промежуткам
Продолжительность промежутка : 40 мс. (1,00 видеокадр)
Время предзагрузки промежутка : 500 мс.
Библиотека кодирования : LAME3.98r
Настройки программы : -m j -V 4 -q 0 -lowpass 17 -b 128
Скриншоты: Время раздачи: 24/7. До первых 5 скачавших.
Rip by Taz
[url=http://www.*/?q=%2B100500&w=title] +100500 на NoNaMe Club[/url]
ВНИМАНИЕ!!! Данный релиз подверженн цензуре телеканала Перец, поэтому ненормативная лексика здесь "ЗАПИКАНА".
Profile PM
Display posts:    

Current time is: 24-Jun 19:13

All times are UTC + 3



You cannot post new topics in this forum
You cannot reply to topics in this forum
You cannot edit your posts in this forum
You cannot delete your posts in this forum
You cannot vote in polls in this forum
You cannot attach files in this forum
You cannot download files in this forum
    Яндекс.Метрика