Поделись в соц. сетях


riper ®

Gender:
Male
Longevity:
6 years 4 months
Posts:
2001

- Thunder - Live Wacken 2013 (2013) DVDRip- Год выпуска: 2013
Жанр: Музыка, Hard, Glam rock
Описание фильма:
Выступление английского хард-рок бэнда Thunder на
Heavy-Metal фестивале Wacken 2013 в Германии.
Треклист:
01. Dirty Love
02. River of Pain
03. Higher Ground
(Low Life in High Places)
04. Backstreet Symphony
06. The Devil Made Me Do It
07. You Can’t Keep a Good Man Down
08. Love Walked In
09. I Love You More Than Rock ‘N’ Roll
+ Interview
Продолжительность: 00:58:28
Качество видео: DVDRip
Видеокодек: DivX 5
Битрейт видео: ~1500 Кбит/с
Размер кадра: 720x406
Аудиокодек: MP3,2ch
Битрейт аудио: 128 Кбит/с

MI:

Общее
Полное имя : D:\Архив\DVD\ThunderWacken2013_Title1.avi
Формат : AVI
Формат/Информация : Audio Video Interleave
Размер файла : 686 Мбайт
Продолжительность : 58 м.
Общий поток : 1640 Кбит/сек
Название фильма : ThunderWacken2013
Программа кодирования : MEncoder 5.0
Видео
Идентификатор : 0
Формат : MPEG-4 Visual
Профиль формата : Simple@L1
Параметр BVOP формата : Нет
Параметр QPel формата : Нет
Параметр GMC формата : Без точки перехода
Параметр матрицы формата : Default (H.263)
Идентификатор кодека : DX50
Идентификатор кодека/Подсказка : DivX 5
Продолжительность : 58 м.
Битрейт : 1500 Кбит/сек
Ширина : 720 пикселей
Высота : 406 пикселей
Соотношение сторон : 16:9
Соотношение сторон в оригинале : 16:9
Частота кадров : 25,000 кадров/сек
Цветовое пространство : YUV
Субдискретизация насыщенности : 4:2:0
Битовая глубина : 8 бит
Тип развёртки : Прогрессивная
Метод сжатия : С потерями
Бит/(Пиксели*Кадры) : 0.205
Размер потока : 627 Мбайт (91%)
Библиотека кодирования : Lavc54.79.100
Аудио
Идентификатор : 1
Формат : MPEG Audio
Версия формата : Version 1
Профиль формата : Layer 3
Идентификатор кодека : 55
Идентификатор кодека/Подсказка : MP3
Продолжительность : 58 м.
Вид битрейта : Постоянный
Битрейт : 128 Кбит/сек
Каналы : 2 канала
Частота : 44,1 КГц
Метод сжатия : С потерями
Размер потока : 53,5 Мбайт (8%)
Выравнивание : Соединение по промежуткам
Продолжительность промежутка : 26 мс. (0,65 видеокадр)
Время предзагрузки промежутка : 522 мс.
Библиотека кодирования : LAME3.99.5
Скриншоты:

Время раздачи: с 6:00 до 22:00 (GMT +2)
Profile PM
Display posts:    

Current time is: 24-Jun 18:34

All times are UTC + 3



You cannot post new topics in this forum
You cannot reply to topics in this forum
You cannot edit your posts in this forum
You cannot delete your posts in this forum
You cannot vote in polls in this forum
You cannot attach files in this forum
You cannot download files in this forum
    Яндекс.Метрика