Поделись в соц. сетях


riper ®

Gender:
Male
Longevity:
6 years 4 months
Posts:
2001

- Михаил Бублик - "Вместе мы обязательно будем" (2012) TVRip- Русское название: Михаил Бублик - "Вместе мы обязательно будем"
Телекомпания: Шансон ТВ
Год выпуска: 2012
Жанр: Музыка, Шансон
Описание фильма: С бешенным успехом 27 июня 2012 г. в Доме Высоцкого на Таганке прошел концерт молодого, перспективного певца Михаила Бублика.
Продолжительность: 01:32:08
Видеокодек: Xvid
Битрейт видео: ~1797 Kbps
Размер кадра: 640x384
Качество видео: TVRip
Аудиокодек: MP3, 2 канала
Битрейт аудио: 320 Kbps

Треклист

1-е отделение:
01.Скажи нет
02.Дарим сердце
03.Дай мне понять
04.Такие новости
05.Что в твоих снах
06.Беги
07.Артобстрел
08.Спаси меня
09.Самообман
10.Вместе мы обязательно будем
2-е отделение:
11.Вспомни
12.40000 вёрст
13.Откровенно
14.За серебряными снегами
15.Песня (фрагмент,под гитару)
16.Прости
17.Будет светло
18.Потанцуем
19.Весна
20.Улетаю навсегда

MI

Общее
Полное имя : C:\Desktop\Раздачи\Михаил Бублик - Вместе мы обязательно будем (2012).avi
Формат : AVI
Формат/Информация : Audio Video Interleave
Размер файла : 1,37 Гбайт
Продолжительность : 1 ч. 32 м.
Общий поток : 2124 Кбит/сек
Программа кодирования : VirtualDubMod 1.5.4.1 (build 2178/release)
Библиотека кодирования : VirtualDubMod build 2178/release
Видео
Идентификатор : 0
Формат : MPEG-4 Visual
Профиль формата : Advanced Simple@L5
Параметр BVOP формата : Нет
Параметр QPel формата : Нет
Параметр GMC формата : Без точки перехода
Параметр матрицы формата : Выборочная
Идентификатор кодека : XVID
Идентификатор кодека/Подсказка : XviD
Продолжительность : 1 ч. 32 м.
Битрейт : 1797 Кбит/сек
Ширина : 640 пикселей
Высота : 384 пикселя
Соотношение сторон : 1,667
Частота кадров : 25,000 кадров/сек
Цветовое пространство : YUV
Субдискретизация насыщенности : 4:2:0
Битовая глубина : 8 бит
Тип развёртки : Прогрессивная
Метод сжатия : С потерями
Бит/(Пиксели*Кадры) : 0.292
Размер потока : 1,16 Гбайт (85%)
Библиотека кодирования : XviD 1.2.1 (UTC 2008-12-04)
Аудио
Идентификатор : 1
Формат : MPEG Audio
Версия формата : Version 1
Профиль формата : Layer 3
Режим : Joint stereo
Идентификатор кодека : 55
Идентификатор кодека/Подсказка : MP3
Продолжительность : 1 ч. 32 м.
Вид битрейта : Постоянный
Битрейт : 320 Кбит/сек
Каналы : 2 канала
Частота : 32,0 КГц
Метод сжатия : С потерями
Размер потока : 211 Мбайт (15%)
Выравнивание : Соединение по промежуткам
Продолжительность промежутка : 80 мс. (2,00 видеокадра)
Время предзагрузки промежутка : 504 мс.
Библиотека кодирования : LAME3.98r
Настройки программы : -m j -V 4 -q 2 -lowpass 16
Скриншоты:

Время раздачи: с 12-00 до 24-00
Profile PM
Display posts:    

Current time is: 24-Jun 18:37

All times are UTC + 3



You cannot post new topics in this forum
You cannot reply to topics in this forum
You cannot edit your posts in this forum
You cannot delete your posts in this forum
You cannot vote in polls in this forum
You cannot attach files in this forum
You cannot download files in this forum
    Яндекс.Метрика