Поделись в соц. сетях


riper ®

Gender:
Male
Longevity:
6 years 4 months
Posts:
2001

- Владимир Высоцкий: Монолог (1987 (запись-1980)) VHSRip - Исполнитель: Владимир Высоцкий
Название: Монолог
Год выпуска: 1987 (встреча состоялась 22 января 1980 года)
Жанр: Концерт
Описание:
Единственный участник передачи - Владимир Семенович Высоцкий. Это его монолог, записанный на видеопленку 22 января 1980 года. В программу вошли 12 песен, большая часть которых прозвучала в телефильме "Вертикаль". Небольшие фрагменты этой телепередачи неоднократно появлялись в различных программах, но здесь она впервые представлена полностью. Из этой записи не вырезали песни, которые у Высоцкого в тот раз "не получились". Остались его маленькие комментарии, иногда неуклюжие, иногда забавные, но всегда очень сердечные и трогательные...
Треклист:
01. Предисловие
02. Попурри из песен
03. Мы вращаем Землю
04. Почему аборигены съели Кука, или Одна научная загадка
05. Я не люблю
06. Пожары
07. Утренняя гимнастика
08. Парус
09. Шторм
10. Песенка ни про что, или Что случилось в Африке
11. Письмо в редакцию телепередачи "Очевидное - невероятное" из сумасшедшего дома - с Канатчиковой дачи
12. Песня о Земле
13. Баллада о Любви
Продолжительность: 00:58:20
Видео: XviD, 1469 kbps, 608x448
Аудио: AC-3 2.0, 192 kbps

MediaInfo

Полное имя                               : K:\UpRG-Концерты\Vladimir_Vysockii_Monolog_[Nnm-Club.ru].avi
Формат                                   : AVI
Формат/Информация                        : Audio Video Interleave
Размер файла                             : 698 Мбайт
Продолжительность                        : 58 м.
Общий поток                              : 1673 Кбит/сек
Программа кодирования                    : VirtualDubMod 1.5.10.2 (build 2540/release)
Библиотека кодирования                   : VirtualDubMod build 2540/release
Видео
Идентификатор                            : 0
Формат                                   : MPEG-4 Visual
Профиль формата                          : Advanced Simple@L5
Параметр BVOP формата                    : 2
Параметр QPel формата                    : Нет
Параметр GMC формата                     : Без точки перехода
Параметр матрицы формата                 : Default (H.263)
Режим смешивания                         : Сжатый битовый поток
Идентификатор кодека                     : XVID
Идентификатор кодека/Подсказка           : XviD
Продолжительность                        : 58 м.
Битрейт                                  : 1469 Кбит/сек
Ширина                                   : 608 пикселей
Высота                                   : 448 пикселей
Соотношение сторон                       : 3:2
Частота кадров                           : 29,970 кадров/сек
Цветовое пространство                    : YUV
Субдискретизация насыщенности            : 4:2:0
Битовая глубина                          : 8 бит
Тип развёртки                            : Прогрессивная
Метод сжатия                             : С потерями
Бит/(Пиксели*Кадры)                      : 0.180
Размер потока                            : 613 Мбайт (88%)
Библиотека кодирования                   : XviD 1.0.2 (UTC 2004-08-29)
Аудио
Идентификатор                            : 1
Формат                                   : AC-3
Формат/Информация                        : Audio Coding 3
Расширение режима                        : CM (complete main)
Параметр Endianness формата              : Big
Идентификатор кодека                     : 2000
Продолжительность                        : 58 м.
Вид битрейта                             : Постоянный
Битрейт                                  : 192 Кбит/сек
Каналы                                   : 2 канала
Расположение каналов                     : Front: L R
Частота                                  : 48,0 КГц
Битовая глубина                          : 16 бит
Метод сжатия                             : С потерями
Задержка видео                           : 170 мс.
Размер потока                            : 80,1 Мбайт (11%)
Выравнивание                             : Разделение по промежуткам
Продолжительность промежутка             : 33  мс. (1,00 видеокадр)
Время предзагрузки промежутка            : 500  мс.
Скриншоты:
Profile PM
Display posts:    

Current time is: 24-Jun 18:57

All times are UTC + 3



You cannot post new topics in this forum
You cannot reply to topics in this forum
You cannot edit your posts in this forum
You cannot delete your posts in this forum
You cannot vote in polls in this forum
You cannot attach files in this forum
You cannot download files in this forum
    Яндекс.Метрика