Поделись в соц. сетях


riper ®

Gender:
Male
Longevity:
6 years 4 months
Posts:
2001

-Ленинград - Live in Sziget (2013) WEBRip -18+
Год выпуска: 2013
Жанр: Ska / Rock
Описание:
Запись выступления группы на фестивале Sziget (Будапешт) 10 августа 2013 года. Sziget Festival 2013. OTP World Music Party Stage.
Треклист:
01. Super good
02. Музыка для мужика
03. И больше никого
04. Пару баб
05. П*здабол
06. WWW
07. Рыба
08. Х*ямба
09. Турбобой
10. Х*й, х*й
11. За*бал
12. Геленджик
13. Ехай на х*й
14. Расп*здяй
15. Огонь и лёд
15. День рождения

продолжение треклиста

16. Звезда рок-н-рола
17. Пока жив
18. Без тебя п*здец
19. По**й всё
20. И так далее
21. Хорошо там, где мы есть
22. Менеджер
23. Мы за всё хорошее
24. Просто
25. Дачники
26. Сладкий сон
27. Родная

О коллективе

«Ленинград» (полное название — Группировка Ленинград) — музыкальная группа из Санкт-Петербурга, созданная Сергеем Шнуровым. Известна, в частности, эксцентричными песнями с большим количеством мата и алкогольно-бытовой тематикой. Группа использует в своём творчестве обширный состав духовых инструментов: труба, саксофон, тромбон, туба. Также группа иногда расширяется за счёт саксгорнов.
Продолжительность: 01:28:20
Качество видео: WEBRip
Видео: Xvid, 704x368 (16:9), 30.000 fps, 2 000 Kbps (0.258 bit/pixel)
Аудио: MP3, 44.1 KHz, 2 ch, 256 Kbps, CBR

МедиаИнфо:

Общее
Полное имя : D:\MUSIC\Leningrad-Sziget.2013.avi
Формат : AVI
Формат/Информация : Audio Video Interleave
Размер файла : 1,40 Гбайт
Продолжительность : 1 ч. 28 м.
Общий поток : 2271 Кбит/сек
Библиотека кодирования : VirtualDub build 35390/release
Видео
Идентификатор : 0
Формат : MPEG-4 Visual
Профиль формата : Advanced Simple@L5
Параметр BVOP формата : 1
Параметр QPel формата : Нет
Параметр GMC формата : Без точки перехода
Параметр матрицы формата : Выборочная
Идентификатор кодека : XVID
Идентификатор кодека/Подсказка : XviD
Продолжительность : 1 ч. 28 м.
Битрейт : 2003 Кбит/сек
Ширина : 704 пикселя
Высота : 368 пикселей
Соотношение сторон : 16:9
Частота кадров : 30,000 кадров/сек
Цветовое пространство : YUV
Субдискретизация насыщенности : 4:2:0
Битовая глубина : 8 бит
Тип развёртки : Прогрессивная
Метод сжатия : С потерями
Бит/(Пиксели*Кадры) : 0.258
Размер потока : 1,24 Гбайт (88%)
Библиотека кодирования : XviD 1.2.1 (UTC 2008-12-04)
Аудио
Идентификатор : 1
Формат : MPEG Audio
Версия формата : Version 1
Профиль формата : Layer 3
Режим : Joint stereo
Идентификатор кодека : 55
Идентификатор кодека/Подсказка : MP3
Продолжительность : 1 ч. 28 м.
Вид битрейта : Постоянный
Битрейт : 256 Кбит/сек
Каналы : 2 канала
Частота : 44,1 КГц
Метод сжатия : С потерями
Размер потока : 162 Мбайт (11%)
Выравнивание : Разделение по промежуткам
Продолжительность промежутка : 33 мс. (1,00 видеокадр)
Время предзагрузки промежутка 500 мс.
Библиотека кодирования : LAME3.99r
Настройки программы : -m j -V 4 -q 3 -lowpass 19.7
Скриншоты: Время раздачи: 24/7 (до первых десяти скачавших)
Profile PM
Display posts:    

Current time is: 24-Jun 19:18

All times are UTC + 3



You cannot post new topics in this forum
You cannot reply to topics in this forum
You cannot edit your posts in this forum
You cannot delete your posts in this forum
You cannot vote in polls in this forum
You cannot attach files in this forum
You cannot download files in this forum
    Яндекс.Метрика