Поделись в соц. сетях


riper ®

Gender:
Male
Longevity:
6 years 4 months
Posts:
2001

-Paul Rodgers - Live in Glasgow (2006) Blu-Ray- Русское название: Пол Роджерс - Вживую в Глазго
Оригинальное название: Paul Rodgers - Live in Glasgow
Год выпуска: 2006
Жанр: Rock
Страна: Англия
Продолжительность: 01:19:42
Треклист:
01. I'll Be Creepin'
02. The Stealer
03. Ride On A Pony
04. Radioactive
05. Be My Friend
06. Warboys
07. Feel Like Makin' Love
08. Bad Company
09. I Just Wanna See You Smile
10. Louisiana Blues
11. Fire And Water
12. Wishing Well
13. All Right Now
14. I'm A Mover
15. The Hunter
16. Can't Get Enough Of Your Love
17. Seagull
Бонусы:
Paul Rodgers interview
Band interviews
Interviews with the fans
Performance of "Sunshine" by Paul's son Steven Rodgers, the supporting act on the tour.
Качество: Blu-ray
Формат: BDMV
Видео кодек: VC-1
Аудио кодек: DTS, WAV, AC3
Видео: 1920x1080i, VC-1, 29.97 fps, ~ 20 Mbps
Аудио 1: DTS-HD MA 5.1, 48 kHz, 16 bit, 3245 kbps
Аудио 2: AC3 5.1, 48 kHz, 640 kbps
Аудио 3: LPCM 2.0, 48 kHz, 16 bit, 1536 kbps
Субтитры: Английские, Французские, Немецкие, Испанские Disc Title:
Disc Size: 24 592 457 284 bytes
Protection: AACS
BD-Java: No
BDInfo: 0.5.3
Notes:
BDINFO HOME:
Cinema Squid
[url=http://www.*/blu-ray/tools/bdinfo]http://www.*/blu-ray/tools/bdinfo[/url]
INCLUDES FORUMS REPORT FOR:
AVS Forum Blu-ray Audio and Video Specifications Thread
[url=http://www.*.com/avs-vb/showthread.php?t=1155731]http://www.*.com/avs-vb/showthread.php?t=1155731[/url]
********************
PLAYLIST: 00000.MPLS
********************
Код:
Total Video
Title Codec Length Movie Size Disc Size Bitrate Bitrate Main Audio Track Secondary Audio Track
----- ------ ------- -------------- -------------- ------- ------- ------------------ ---------------------
00000.MPLS VC-1 1:19:42 16 257 036 288 24 592 457 284 27,20 20,06 DTS-HD Master 5.1 3245Kbps (48kHz/16-bit) DD AC3 5.1 640Kbps
Код:
DISC INFO:
Disc Title:
Disc Size: 24 592 457 284 bytes
Protection: AACS
BD-Java: No
BDInfo: 0.5.3
PLAYLIST REPORT:
Name: 00000.MPLS
Length: 1:19:42 (h:m:s)
Size: 16 257 036 288 bytes
Total Bitrate: 27,20 Mbps
VIDEO:
Codec Bitrate Description
----- ------- -----------
VC-1 Video 20056 kbps 1080i / 29,970 fps / 16:9 / Advanced Profile 3
AUDIO:
Codec Language Bitrate Description
----- -------- ------- -----------
DTS-HD Master Audio English 3245 kbps 5.1 / 48 kHz / 3245 kbps / 16-bit (DTS Core: 5.1 / 48 kHz / 1509 kbps / 16-bit)
Dolby Digital Audio English 640 kbps 5.1 / 48 kHz / 640 kbps / DN -4dB
LPCM Audio English 1536 kbps 2.0 / 48 kHz / 1536 kbps / 16-bit
FILES:
Name Time In Length Size Total Bitrate
---- ------- ------ ---- -------------
00006.M2TS 0:00:00.000 1:19:42.177 16 257 036 288 27 196
CHAPTERS:
Number Time In Length Avg Video Rate Max 1-Sec Rate Max 1-Sec Time Max 5-Sec Rate Max 5-Sec Time Max 10Sec Rate Max 10Sec Time Avg Frame Size Max Frame Size Max Frame Time
------ ------- ------ -------------- -------------- -------------- -------------- -------------- -------------- -------------- -------------- -------------- --------------
1 0:00:00.000 0:04:14.721 17 295 kbps 44 399 kbps 00:01:50.410 29 765 kbps 00:01:48.141 25 933 kbps 00:03:13.760 72 136 bytes 522 116 bytes 00:00:06.840
2 0:04:14.721 0:03:48.962 19 902 kbps 43 455 kbps 00:06:25.284 31 981 kbps 00:07:51.904 28 868 kbps 00:06:47.407 83 010 bytes 401 191 bytes 00:05:39.138
3 0:08:03.683 0:04:22.428 18 736 kbps 39 854 kbps 00:09:12.585 27 444 kbps 00:08:42.555 24 084 kbps 00:10:49.281 78 146 bytes 396 882 bytes 00:09:12.618
4 0:12:26.112 0:03:44.691 22 050 kbps 45 201 kbps 00:15:08.507 32 591 kbps 00:14:42.448 28 610 kbps 00:15:17.316 91 969 bytes 433 631 bytes 00:15:09.508
5 0:16:10.803 0:06:37.597 20 041 kbps 47 149 kbps 00:20:32.331 35 795 kbps 00:21:27.619 34 047 kbps 00:21:10.469 83 588 bytes 398 412 bytes 00:16:28.854
6 0:22:48.400 0:03:56.469 20 703 kbps 47 781 kbps 00:25:08.940 33 540 kbps 00:25:08.740 27 304 kbps 00:25:04.002 86 350 bytes 435 019 bytes 00:25:09.007
7 0:26:44.869 0:05:02.502 20 443 kbps 45 076 kbps 00:31:28.286 30 970 kbps 00:30:35.533 29 115 kbps 00:30:16.614 85 265 bytes 395 862 bytes 00:30:40.004
8 0:31:47.372 0:05:25.391 21 132 kbps 48 990 kbps 00:36:42.767 37 285 kbps 00:35:43.741 31 825 kbps 00:35:43.641 88 139 bytes 449 816 bytes 00:33:22.567
9 0:37:12.763 0:03:08.521 17 500 kbps 38 969 kbps 00:37:30.181 32 521 kbps 00:38:14.992 25 072 kbps 00:38:10.855 72 991 bytes 385 032 bytes 00:39:43.848
10 0:40:21.285 0:03:59.472 19 994 kbps 41 017 kbps 00:43:38.048 33 887 kbps 00:43:36.647 30 773 kbps 00:43:32.343 83 393 bytes 375 567 bytes 00:44:09.480
11 0:44:20.758 0:04:18.258 21 159 kbps 45 391 kbps 00:46:43.033 36 150 kbps 00:46:26.150 31 124 kbps 00:46:42.065 88 249 bytes 451 775 bytes 00:45:03.600
12 0:48:39.016 0:03:31.244 21 983 kbps 49 730 kbps 00:51:32.556 32 151 kbps 00:51:31.321 28 979 kbps 00:49:26.863 91 689 bytes 444 131 bytes 00:49:19.323
13 0:52:10.260 0:07:21.007 20 545 kbps 50 615 kbps 00:55:50.113 32 805 kbps 00:55:42.372 31 093 kbps 00:55:42.372 85 702 bytes 402 887 bytes 00:57:24.307
14 0:59:31.267 0:03:11.124 18 799 kbps 42 533 kbps 01:01:08.331 33 281 kbps 01:01:04.794 27 852 kbps 01:01:03.559 78 408 bytes 405 374 bytes 01:01:08.598
15 1:02:42.391 0:05:57.957 22 801 kbps 48 367 kbps 01:05:29.792 34 957 kbps 01:02:57.607 31 851 kbps 01:05:23.386 95 099 bytes 466 897 bytes 01:05:03.266
16 1:08:40.349 0:05:46.212 22 626 kbps 47 218 kbps 01:11:03.058 37 192 kbps 01:12:41.423 34 121 kbps 01:12:36.418 94 368 bytes 439 916 bytes 01:10:05.401
17 1:14:26.562 0:05:15.615 13 658 kbps 41 112 kbps 01:18:19.561 33 470 kbps 01:18:02.110 26 952 kbps 01:17:57.372 56 973 bytes 428 096 bytes 01:18:19.594
STREAM DIAGNOSTICS:
File PID Type Codec Language Seconds Bitrate Bytes Packets
---- --- ---- ----- -------- -------------- -------------- ------------- -----
00006.M2TS 4113 (0x1011) 0xEA VC-1 4782,111 20 057 11 989 113 467 65 244 226
00006.M2TS 4352 (0x1100) 0x80 LPCM eng (English) 4782,111 1 542 922 003 340 5 738 610
00006.M2TS 4353 (0x1101) 0x81 AC3 eng (English) 4782,111 640 382 574 080 2 241 645
00006.M2TS 4354 (0x1102) 0x86 DTS-HD MA eng (English) 4782,111 3 245 1 939 779 604 11 287 344
QUICK SUMMARY:
Disc Title:
Disc Size: 24 592 457 284 bytes
Protection: AACS
BD-Java: No
Playlist: 00000.MPLS
Size: 16 257 036 288 bytes
Length: 1:19:42
Total Bitrate: 27,20 Mbps
Video: VC-1 Video / 20056 kbps / 1080i / 29,970 fps / 16:9 / Advanced Profile 3
Audio: English / DTS-HD Master Audio / 5.1 / 48 kHz / 3245 kbps / 16-bit (DTS Core: 5.1 / 48 kHz / 1509 kbps / 16-bit)
Audio: English / Dolby Digital Audio / 5.1 / 48 kHz / 640 kbps / DN -4dB
Audio: English / LPCM Audio / 2.0 / 48 kHz / 1536 kbps / 16-bit
********************
PLAYLIST: 00003.MPLS
********************
Код:
Total Video
Title Codec Length Movie Size Disc Size Bitrate Bitrate Main Audio Track Secondary Audio Track
----- ------ ------- -------------- -------------- ------- ------- ------------------ ---------------------
00003.MPLS VC-1 0:18:24 3 042 029 568 24 592 457 284 22,04 19,01 DD AC3 2.0 192Kbps
Код:
DISC INFO:
Disc Title:
Disc Size: 24 592 457 284 bytes
Protection: AACS
BD-Java: No
BDInfo: 0.5.3
PLAYLIST REPORT:
Name: 00003.MPLS
Length: 0:18:24 (h:m:s)
Size: 3 042 029 568 bytes
Total Bitrate: 22,04 Mbps
VIDEO:
Codec Bitrate Description
----- ------- -----------
VC-1 Video 19011 kbps 1080i / 29,970 fps / 16:9 / Advanced Profile 3
AUDIO:
Codec Language Bitrate Description
----- -------- ------- -----------
Dolby Digital Audio English 192 kbps 2.0 / 48 kHz / 192 kbps / DN -4dB
SUBTITLES:
Codec Language Bitrate Description
----- -------- ------- -----------
Presentation Graphics English 0,040 kbps
Presentation Graphics English 70,404 kbps
Presentation Graphics French 60,608 kbps
Presentation Graphics German 62,904 kbps
Presentation Graphics Spanish 60,813 kbps
FILES:
Name Time In Length Size Total Bitrate
---- ------- ------ ---- -------------
00008.M2TS 0:00:00.000 0:18:23.335 3 041 507 328 22 053
00012.M2TS 0:18:23.335 0:00:01.000 522 240 4 174
CHAPTERS:
Number Time In Length Avg Video Rate Max 1-Sec Rate Max 1-Sec Time Max 5-Sec Rate Max 5-Sec Time Max 10Sec Rate Max 10Sec Time Avg Frame Size Max Frame Size Max Frame Time
------ ------- ------ -------------- -------------- -------------- -------------- -------------- -------------- -------------- -------------- -------------- --------------
1 0:00:00.000 0:06:04.197 17 815 kbps 47 660 kbps 00:02:22.609 36 939 kbps 00:00:08.508 33 669 kbps 00:00:02.969 74 515 bytes 621 225 bytes 00:00:03.003
2 0:06:04.197 0:06:44.370 18 504 kbps 38 389 kbps 00:06:09.802 33 839 kbps 00:06:09.569 32 751 kbps 00:06:08.701 77 258 bytes 571 299 bytes 00:10:58.924
3 0:12:48.567 0:05:34.767 20 974 kbps 41 094 kbps 00:13:10.256 35 999 kbps 00:13:07.052 34 061 kbps 00:13:01.580 87 629 bytes 585 686 bytes 00:13:37.650
4 0:18:23.335 0:00:01.000 2 138 kbps 0 kbps 00:00:00.000 0 kbps 00:00:00.000 0 kbps 00:00:00.000 9 226 bytes 34 670 bytes 00:18:23.368
STREAM DIAGNOSTICS:
File PID Type Codec Language Seconds Bitrate Bytes Packets
---- --- ---- ----- -------- -------------- -------------- ------------- -----
00008.M2TS 4113 (0x1011) 0xEA VC-1 1103,202 19 027 2 623 844 473 14 279 863
00008.M2TS 4352 (0x1100) 0x80 LPCM eng (English) 1103,202 1 543 212 722 988 1 324 002
00008.M2TS 4608 (0x1200) 0x90 PGS deu (German) 1103,202 63 8 677 836 49 500
00008.M2TS 4609 (0x1201) 0x90 PGS eng (English) 1103,202 70 9 713 171 55 134
00008.M2TS 4610 (0x1202) 0x90 PGS spa (Spanish) 1103,202 61 8 389 193 47 932
00008.M2TS 4611 (0x1203) 0x90 PGS fra (French) 1103,202 61 8 360 941 47 771
00012.M2TS 4113 (0x1011) 0xEA VC-1 0,901 3 754 422 740 2 315
00012.M2TS 4352 (0x1100) 0x81 AC3 eng (English) 0,901 211 23 808 155
00012.M2TS 4608 (0x1200) 0x90 PGS deu (German) 0,901 49 5 497 37
00012.M2TS 4609 (0x1201) 0x90 PGS eng (English) 0,901 49 5 497 37
00012.M2TS 4610 (0x1202) 0x90 PGS spa (Spanish) 0,901 49 5 497 37
00012.M2TS 4611 (0x1203) 0x90 PGS fra (French) 0,901 49 5 497 37
00012.M2TS 4612 (0x1204) 0x90 PGS eng (English) 0,901 49 5 497 37
QUICK SUMMARY:
Disc Title:
Disc Size: 24 592 457 284 bytes
Protection: AACS
BD-Java: No
Playlist: 00003.MPLS
Size: 3 042 029 568 bytes
Length: 0:18:24
Total Bitrate: 22,04 Mbps
Video: VC-1 Video / 19011 kbps / 1080i / 29,970 fps / 16:9 / Advanced Profile 3
Audio: English / Dolby Digital Audio / 2.0 / 48 kHz / 192 kbps / DN -4dB
Subtitle: English / 0,040 kbps
Subtitle: English / 70,404 kbps
Subtitle: French / 60,608 kbps
Subtitle: German / 62,904 kbps
Subtitle: Spanish / 60,813 kbps
********************
PLAYLIST: 00005.MPLS
********************
Код:
Total Video
Title Codec Length Movie Size Disc Size Bitrate Bitrate Main Audio Track Secondary Audio Track
----- ------ ------- -------------- -------------- ------- ------- ------------------ ---------------------
00005.MPLS VC-1 0:16:14 2 678 108 160 24 592 457 284 22,00 18,92 DD AC3 2.0 192Kbps
Код:
DISC INFO:
Disc Title:
Disc Size: 24 592 457 284 bytes
Protection: AACS
BD-Java: No
BDInfo: 0.5.3
PLAYLIST REPORT:
Name: 00005.MPLS
Length: 0:16:14 (h:m:s)
Size: 2 678 108 160 bytes
Total Bitrate: 22,00 Mbps
VIDEO:
Codec Bitrate Description
----- ------- -----------
VC-1 Video 18925 kbps 1080i / 29,970 fps / 16:9 / Advanced Profile 3
AUDIO:
Codec Language Bitrate Description
----- -------- ------- -----------
Dolby Digital Audio English 192 kbps 2.0 / 48 kHz / 192 kbps / DN -4dB
SUBTITLES:
Codec Language Bitrate Description
----- -------- ------- -----------
Presentation Graphics English 0,045 kbps
Presentation Graphics English 84,310 kbps
Presentation Graphics French 68,681 kbps
Presentation Graphics German 73,920 kbps
Presentation Graphics Spanish 71,984 kbps
FILES:
Name Time In Length Size Total Bitrate
---- ------- ------ ---- -------------
00010.M2TS 0:00:00.000 0:16:13.005 2 677 585 920 22 015
00012.M2TS 0:16:13.005 0:00:01.000 522 240 4 174
CHAPTERS:
Number Time In Length Avg Video Rate Max 1-Sec Rate Max 1-Sec Time Max 5-Sec Rate Max 5-Sec Time Max 10Sec Rate Max 10Sec Time Avg Frame Size Max Frame Size Max Frame Time
------ ------- ------ -------------- -------------- -------------- -------------- -------------- -------------- -------------- -------------- -------------- --------------
1 0:00:00.000 0:05:43.676 19 234 kbps 45 432 kbps 00:00:01.201 33 650 kbps 00:00:23.990 27 959 kbps 00:00:20.954 80 229 bytes 680 479 bytes 00:00:15.115
2 0:05:43.676 0:06:22.515 19 272 kbps 29 196 kbps 00:08:24.971 27 242 kbps 00:08:22.368 23 575 kbps 00:08:20.733 80 389 bytes 393 431 bytes 00:12:05.724
3 0:12:06.192 0:04:06.813 18 024 kbps 36 180 kbps 00:15:12.111 25 967 kbps 00:15:12.077 23 988 kbps 00:15:12.077 75 277 bytes 400 888 bytes 00:12:26.178
4 0:16:13.005 0:00:01.000 2 138 kbps 0 kbps 00:00:00.000 0 kbps 00:00:00.000 0 kbps 00:00:00.000 9 226 bytes 34 670 bytes 00:16:13.038
STREAM DIAGNOSTICS:
File PID Type Codec Language Seconds Bitrate Bytes Packets
---- --- ---- ----- -------- -------------- -------------- ------------- -----
00010.M2TS 4113 (0x1011) 0xEA VC-1 972,872 18 943 2 303 694 236 12 537 522
00010.M2TS 4352 (0x1100) 0x80 LPCM eng (English) 972,872 1 543 187 595 364 1 167 606
00010.M2TS 4608 (0x1200) 0x90 PGS deu (German) 972,872 74 8 994 324 51 485
00010.M2TS 4609 (0x1201) 0x90 PGS eng (English) 972,872 84 10 259 276 58 325
00010.M2TS 4610 (0x1202) 0x90 PGS spa (Spanish) 972,872 72 8 758 658 50 203
00010.M2TS 4611 (0x1203) 0x90 PGS fra (French) 972,872 69 8 356 464 48 009
00012.M2TS 4113 (0x1011) 0xEA VC-1 0,901 3 754 422 740 2 315
00012.M2TS 4352 (0x1100) 0x81 AC3 eng (English) 0,901 211 23 808 155
00012.M2TS 4608 (0x1200) 0x90 PGS deu (German) 0,901 49 5 497 37
00012.M2TS 4609 (0x1201) 0x90 PGS eng (English) 0,901 49 5 497 37
00012.M2TS 4610 (0x1202) 0x90 PGS spa (Spanish) 0,901 49 5 497 37
00012.M2TS 4611 (0x1203) 0x90 PGS fra (French) 0,901 49 5 497 37
00012.M2TS 4612 (0x1204) 0x90 PGS eng (English) 0,901 49 5 497 37
QUICK SUMMARY:
Disc Title:
Disc Size: 24 592 457 284 bytes
Protection: AACS
BD-Java: No
Playlist: 00005.MPLS
Size: 2 678 108 160 bytes
Length: 0:16:14
Total Bitrate: 22,00 Mbps
Video: VC-1 Video / 18925 kbps / 1080i / 29,970 fps / 16:9 / Advanced Profile 3
Audio: English / Dolby Digital Audio / 2.0 / 48 kHz / 192 kbps / DN -4dB
Subtitle: English / 0,045 kbps
Subtitle: English / 84,310 kbps
Subtitle: French / 68,681 kbps
Subtitle: German / 73,920 kbps
Subtitle: Spanish / 71,984 kbps
********************
PLAYLIST: 00004.MPLS
********************
Код:
Total Video
Title Codec Length Movie Size Disc Size Bitrate Bitrate Main Audio Track Secondary Audio Track
----- ------ ------- -------------- -------------- ------- ------- ------------------ ---------------------
00004.MPLS VC-1 0:08:19 1 377 282 048 24 592 457 284 22,06 18,96 DD AC3 2.0 192Kbps
Код:
DISC INFO:
Disc Title:
Disc Size: 24 592 457 284 bytes
Protection: AACS
BD-Java: No
BDInfo: 0.5.3
PLAYLIST REPORT:
Name: 00004.MPLS
Length: 0:08:19 (h:m:s)
Size: 1 377 282 048 bytes
Total Bitrate: 22,06 Mbps
VIDEO:
Codec Bitrate Description
----- ------- -----------
VC-1 Video 18959 kbps 1080i / 29,970 fps / 16:9 / Advanced Profile 3
AUDIO:
Codec Language Bitrate Description
----- -------- ------- -----------
Dolby Digital Audio English 192 kbps 2.0 / 48 kHz / 192 kbps / DN -4dB
SUBTITLES:
Codec Language Bitrate Description
----- -------- ------- -----------
Presentation Graphics English 0,088 kbps
Presentation Graphics English 94,483 kbps
Presentation Graphics French 73,328 kbps
Presentation Graphics German 79,078 kbps
Presentation Graphics Spanish 78,129 kbps
FILES:
Name Time In Length Size Total Bitrate
---- ------- ------ ---- -------------
00009.M2TS 0:00:00.000 0:08:18.498 1 376 759 808 22 095
00012.M2TS 0:08:18.498 0:00:01.000 522 240 4 174
CHAPTERS:
Number Time In Length Avg Video Rate Max 1-Sec Rate Max 1-Sec Time Max 5-Sec Rate Max 5-Sec Time Max 10Sec Rate Max 10Sec Time Avg Frame Size Max Frame Size Max Frame Time
------ ------- ------ -------------- -------------- -------------- -------------- -------------- -------------- -------------- -------------- -------------- --------------
1 0:00:00.000 0:08:18.498 18 992 kbps 43 103 kbps 00:01:36.296 36 773 kbps 00:01:36.296 35 188 kbps 00:01:24.551 79 220 bytes 464 334 bytes 00:01:27.086
2 0:08:18.498 0:00:01.000 2 138 kbps 0 kbps 00:00:00.000 0 kbps 00:00:00.000 0 kbps 00:00:00.000 9 226 bytes 34 670 bytes 00:08:18.531
STREAM DIAGNOSTICS:
File PID Type Codec Language Seconds Bitrate Bytes Packets
---- --- ---- ----- -------- -------------- -------------- ------------- -----
00009.M2TS 4113 (0x1011) 0xEA VC-1 498,398 18 994 1 183 308 944 6 439 989
00009.M2TS 4352 (0x1100) 0x80 LPCM eng (English) 498,398 1 543 96 110 800 598 200
00009.M2TS 4608 (0x1200) 0x90 PGS deu (German) 498,398 79 4 931 907 28 187
00009.M2TS 4609 (0x1201) 0x90 PGS eng (English) 498,398 95 5 893 758 33 415
00009.M2TS 4610 (0x1202) 0x90 PGS spa (Spanish) 498,398 78 4 872 644 27 868
00009.M2TS 4611 (0x1203) 0x90 PGS fra (French) 498,398 73 4 572 881 26 240
00012.M2TS 4113 (0x1011) 0xEA VC-1 0,901 3 754 422 740 2 315
00012.M2TS 4352 (0x1100) 0x81 AC3 eng (English) 0,901 211 23 808 155
00012.M2TS 4608 (0x1200) 0x90 PGS deu (German) 0,901 49 5 497 37
00012.M2TS 4609 (0x1201) 0x90 PGS eng (English) 0,901 49 5 497 37
00012.M2TS 4610 (0x1202) 0x90 PGS spa (Spanish) 0,901 49 5 497 37
00012.M2TS 4611 (0x1203) 0x90 PGS fra (French) 0,901 49 5 497 37
00012.M2TS 4612 (0x1204) 0x90 PGS eng (English) 0,901 49 5 497 37
QUICK SUMMARY:
Disc Title:
Disc Size: 24 592 457 284 bytes
Protection: AACS
BD-Java: No
Playlist: 00004.MPLS
Size: 1 377 282 048 bytes
Length: 0:08:19
Total Bitrate: 22,06 Mbps
Video: VC-1 Video / 18959 kbps / 1080i / 29,970 fps / 16:9 / Advanced Profile 3
Audio: English / Dolby Digital Audio / 2.0 / 48 kHz / 192 kbps / DN -4dB
Subtitle: English / 0,088 kbps
Subtitle: English / 94,483 kbps
Subtitle: French / 73,328 kbps
Subtitle: German / 79,078 kbps
Subtitle: Spanish / 78,129 kbps
********************
PLAYLIST: 00006.MPLS
********************
Код:
Total Video
Title Codec Length Movie Size Disc Size Bitrate Bitrate Main Audio Track Secondary Audio Track
----- ------ ------- -------------- -------------- ------- ------- ------------------ ---------------------
00006.MPLS VC-1 0:03:12 524 531 712 24 592 457 284 21,85 19,11 LPCM 2.0 1536Kbps (48kHz/16-bit)
Код:
DISC INFO:
Disc Title:
Disc Size: 24 592 457 284 bytes
Protection: AACS
BD-Java: No
BDInfo: 0.5.3
PLAYLIST REPORT:
Name: 00006.MPLS
Length: 0:03:12 (h:m:s)
Size: 524 531 712 bytes
Total Bitrate: 21,85 Mbps
VIDEO:
Codec Bitrate Description
----- ------- -----------
VC-1 Video 19108 kbps 1080i / 29,970 fps / 16:9 / Advanced Profile 3
AUDIO:
Codec Language Bitrate Description
----- -------- ------- -----------
LPCM Audio English 1536 kbps 2.0 / 48 kHz / 1536 kbps / 16-bit
FILES:
Name Time In Length Size Total Bitrate
---- ------- ------ ---- -------------
00011.M2TS 0:00:00.000 0:03:11.024 524 046 336 21 947
00013.M2TS 0:03:11.024 0:00:01.000 485 376 3 879
CHAPTERS:
Number Time In Length Avg Video Rate Max 1-Sec Rate Max 1-Sec Time Max 5-Sec Rate Max 5-Sec Time Max 10Sec Rate Max 10Sec Time Avg Frame Size Max Frame Size Max Frame Time
------ ------- ------ -------------- -------------- -------------- -------------- -------------- -------------- -------------- -------------- -------------- --------------
1 0:00:00.000 0:03:11.024 19 196 kbps 31 729 kbps 00:01:52.545 27 358 kbps 00:01:50.810 24 846 kbps 00:00:54.988 80 051 bytes 357 498 bytes 00:01:07.901
2 0:03:11.024 0:00:01.000 2 138 kbps 0 kbps 00:00:00.000 0 kbps 00:00:00.000 0 kbps 00:00:00.000 9 226 bytes 34 670 bytes 00:03:11.057
STREAM DIAGNOSTICS:
File PID Type Codec Language Seconds Bitrate Bytes Packets
---- --- ---- ----- -------- -------------- -------------- ------------- -----
00011.M2TS 4113 (0x1011) 0xEA VC-1 190,957 19 197 458 217 859 2 493 747
00011.M2TS 4352 (0x1100) 0x80 LPCM eng (English) 190,957 1 543 36 829 620 229 230
00013.M2TS 4113 (0x1011) 0xEA VC-1 0,901 3 754 422 740 2 315
00013.M2TS 4352 (0x1100) 0x81 AC3 eng (English) 0,901 211 23 808 155
QUICK SUMMARY:
Disc Title:
Disc Size: 24 592 457 284 bytes
Protection: AACS
BD-Java: No
Playlist: 00006.MPLS
Size: 524 531 712 bytes
Length: 0:03:12
Total Bitrate: 21,85 Mbps
Video: VC-1 Video / 19108 kbps / 1080i / 29,970 fps / 16:9 / Advanced Profile 3
Audio: English / LPCM Audio / 2.0 / 48 kHz / 1536 kbps / 16-bit
********************
PLAYLIST: 00002.MPLS
********************
Код:
Total Video
Title Codec Length Movie Size Disc Size Bitrate Bitrate Main Audio Track Secondary Audio Track
----- ------ ------- -------------- -------------- ------- ------- ------------------ ---------------------
00002.MPLS VC-1 0:00:33 39 112 704 24 592 457 284 9,46 8,34 DD AC3 5.1 640Kbps
Код:
DISC INFO:
Disc Title:
Disc Size: 24 592 457 284 bytes
Protection: AACS
BD-Java: No
BDInfo: 0.5.3
PLAYLIST REPORT:
Name: 00002.MPLS
Length: 0:00:33 (h:m:s)
Size: 39 112 704 bytes
Total Bitrate: 9,46 Mbps
VIDEO:
Codec Bitrate Description
----- ------- -----------
VC-1 Video 8340 kbps 1080i / 29,970 fps / 16:9 / Advanced Profile 3
AUDIO:
Codec Language Bitrate Description
----- -------- ------- -----------
Dolby Digital Audio English 640 kbps 5.1 / 48 kHz / 640 kbps / DN -4dB
FILES:
Name Time In Length Size Total Bitrate
---- ------- ------ ---- -------------
00000.M2TS 0:00:00.000 0:00:10.009 11 200 512 8 951
00001.M2TS 0:00:10.009 0:00:10.009 10 457 088 8 357
00002.M2TS 0:00:20.019 0:00:12.045 16 908 288 11 230
00014.M2TS 0:00:32.065 0:00:01.000 546 816 4 370
CHAPTERS:
Number Time In Length Avg Video Rate Max 1-Sec Rate Max 1-Sec Time Max 5-Sec Rate Max 5-Sec Time Max 10Sec Rate Max 10Sec Time Avg Frame Size Max Frame Size Max Frame Time
------ ------- ------ -------------- -------------- -------------- -------------- -------------- -------------- -------------- -------------- -------------- --------------
1 0:00:00.000 0:00:33.066 8 340 kbps 20 688 kbps 00:00:27.827 15 747 kbps 00:00:21.488 12 488 kbps 00:00:18.985 35 537 bytes 417 552 bytes 00:00:04.004
STREAM DIAGNOSTICS:
File PID Type Codec Language Seconds Bitrate Bytes Packets
---- --- ---- ----- -------- -------------- -------------- ------------- -----
00000.M2TS 4113 (0x1011) 0xEA VC-1 9,877 7 915 9 771 834 53 288
00000.M2TS 4352 (0x1100) 0x81 AC3 eng (English) 9,877 647 798 720 4 680
00001.M2TS 4113 (0x1011) 0xEA VC-1 9,877 7 340 9 061 231 49 420
00001.M2TS 4352 (0x1100) 0x81 AC3 eng (English) 9,877 647 798 720 4 680
00002.M2TS 4113 (0x1011) 0xEA VC-1 11,945 10 190 15 214 683 82 923
00002.M2TS 4352 (0x1100) 0x81 AC3 eng (English) 11,945 537 801 280 4 695
00014.M2TS 4113 (0x1011) 0xEA VC-1 0,901 3 754 422 740 2 315
00014.M2TS 4352 (0x1100) 0x81 AC3 eng (English) 0,901 705 79 360 465
QUICK SUMMARY:
Disc Title:
Disc Size: 24 592 457 284 bytes
Protection: AACS
BD-Java: No
Playlist: 00002.MPLS
Size: 39 112 704 bytes
Length: 0:00:33
Total Bitrate: 9,46 Mbps
Video: VC-1 Video / 8340 kbps / 1080i / 29,970 fps / 16:9 / Advanced Profile 3
Audio: English / Dolby Digital Audio / 5.1 / 48 kHz / 640 kbps / DN -4dB Скриншоты:

Время раздачи: 24/7
Profile PM
Display posts:    

Current time is: 24-Jun 18:50

All times are UTC + 3



You cannot post new topics in this forum
You cannot reply to topics in this forum
You cannot edit your posts in this forum
You cannot delete your posts in this forum
You cannot vote in polls in this forum
You cannot attach files in this forum
You cannot download files in this forum
    Яндекс.Метрика